Под электрическими облаками (Алексей Герман мл.) [2015, драма, WEB-DLRip]

Ответить на тему
 
Автор Сообщение

user ®

Стаж: 7 лет 7 месяцев

Сообщений: 20008

Пост Пост: #1 от 19-Июн-2015 09:27

[Цитировать]

Под электрическими облаками
Жанр: драма
Год выпуска: 2015
Продолжительность: 02:17:05
Режиссёр: Алексей Герман мл.
В ролях: Мераб Нинидзе, Анастасия Мельникова, Чулпан Хаматова, Вениамин Кац, Петр Гасовский, Константин Зелигер, Виктор Бугаков, Виктория Короткова, Луис Франк, Карим Пакачаков, Мария Цап-Страшилина, Анастасия Фомина, Мария Олейникова, Филипп Дьячков, Рамиль Салахутдинов, Алексей Вертинский, Сергей Сипливый, Ирина Соколова, Владимир Раннев, Дмитрий Воздвиженский
Описание: Действие фильма происходит в 2017 году. Мир находится в ожидании большой войны. Герои фильма живут совершенно разными жизнями, но каждый из них принадлежит к тем, кого в классической русской литературе называют «лишними людьми». Это история об их жизни, преодолениях и борьбе. Это также история одного недостроенного здания, вокруг которого оказались разбросаны их судьбы.
Доп. информация: http://www.kinopoisk.ru/film/669489/
Сэмпл: http://sendfile.su/1129509
Качество видео: WEB-DLRip
Формат видео: AVI
Видео: 720x304 (2.35:1), 23.976 fps, XviD 73 ~1681 kbps avg, 0.320
Аудио: 44.1 kHz, AC3 Dolby Digital, 2 ch, ~448 kbps
MediaInfo
General
Complete name : E:\P0d.elektr14eskimi.0blakami.2015.O.WEB-DLRip.2100MB.avi
Format : AVI
Format/Info : Audio Video Interleave
Format profile : OpenDML
File size : 2.05 GiB
Duration : 2h 17mn
Overall bit rate : 2 141 Kbps
Writing application : VirtualDubMod 1.5.10.2 (build 2540/release)
Writing library : VirtualDubMod build 2540/release
Video
ID : 0
Format : MPEG-4 Visual
Format profile : Advanced Simple@L5
Format settings, BVOP : 2
Format settings, QPel : No
Format settings, GMC : No warppoints
Format settings, Matrix : Custom
Codec ID : XVID
Codec ID/Hint : XviD
Duration : 2h 17mn
Bit rate : 1 681 Kbps
Width : 720 pixels
Height : 304 pixels
Display aspect ratio : 2.35:1
Frame rate : 23.976 fps
Color space : YUV
Chroma subsampling : 4:2:0
Bit depth : 8 bits
Scan type : Progressive
Compression mode : Lossy
Bits/(Pixel*Frame) : 0.320
Stream size : 1.61 GiB (79%)
Writing library : XviD 1.2.1 (UTC 2008-12-04)
Audio
ID : 1
Format : AC-3
Format/Info : Audio Coding 3
Mode extension : CM (complete main)
Format settings, Endianness : Big
Codec ID : 2000
Duration : 2h 17mn
Bit rate mode : Constant
Bit rate : 448 Kbps
Channel(s) : 2 channels
Channel positions : Front: L R
Sampling rate : 44.1 KHz
Compression mode : Lossy
Stream size : 439 MiB (21%)
Alignment : Split accross interleaves
Interleave, duration : 42 ms (1.00 video frame)
Interleave, preload duration : 500 ms
Скриншот c названием фильма Скриншоты
Скачать

Скачать торрент!

Как скачивать? · Что такое торрент? · Рейтинг и ограничения

Сайт не распространяет и не хранит электронные версии произведений, а лишь предоставляет доступ к создаваемому пользователями каталогу ссылок на торрент-файлы, которые содержат только списки хеш-сумм

[Профиль] [ЛС]
Показать сообщения:    
Ответить на тему

Текущее время: Сегодня 03:14

Часовой пояс: GMT + 4



Вы не можете начинать темы
Вы не можете отвечать на сообщения
Вы не можете редактировать свои сообщения
Вы не можете удалять свои сообщения
Вы не можете голосовать в опросах
Вы не можете прикреплять файлы к сообщениям
Вы не можете скачивать файлы