Женский дом / GirlHouse (Тревор Мэтьюз / Trevor Matthews) [2014, Канада, ужасы, триллер, BDRip 720p] MVO (Sunny-Films) + Sub Eng + Original Eng

Ответить на тему
 
Автор Сообщение

user ®

Стаж: 7 лет 7 месяцев

Сообщений: 20008

Пост Пост: #1 от 19-Июн-2015 03:18

[Цитировать]

Женский дом / GirlHouse
Страна: Канада
Студия: Brookstreet Pictures
Жанр: ужасы, триллер
Год выпуска: 2014
Продолжительность: 01:41:07
Перевод: Любительский (многоголосый закадровый) Sunny-Films
Cубтитры: английские
Оригинальная аудиодорожка: английский
Режиссер: Тревор Мэтьюз / Trevor Matthews
В ролях: Эли Кобрин, Адам ДиМарко, Слэйн, Элисон Бэт, Элисия Ротару, Элис Хантер, Чести Бальестерос, Николь Фокс, Зулейка Силвер, Уэсли МакИннес
Описание: Молодая студентка, отчаянно нуждающаяся в деньгах на обучение, начинает работу в доме, откуда ведутся трансляции порно. Но стоит обиженному рукоблуду фанату узнать его местоположение, как ей приходится бороться за свою жизнь.
II Сэмпл II IMDB II
Доп. информация:
За русскую дорогу спасибо Рюмка-Водки
Тип релиза: BDRip 720p (Girlhouse.2014.BluRay.720p.DTS.x264-EPiC)
Контейнер: MKV
Видео: AVC / 1280x536 / 2.40:1 / 23.976fps / Bit rate 5300Kbps / High@L4.1
Аудио 1: AC3 / 48.0KHz / 2ch. / 192kbps / rus / Sunny-Films
Аудио 2: DTS / 48.0KHz / 6ch. / 768kbps / 24bit / eng
Формат субтитров: softsub (SRT)
MediaInfo
Общее
Уникальный идентификатор : 244569529411138061101433813679314030546 (0xB7FE60C5C59EE631836AA3AEC6CBCFD2)
Полное имя : H:\!_Torrent\Girlhouse.2014.BDRip.720p.Sub.Eng.mkv
Формат : Matroska
Версия формата : Version 4 / Version 2
Размер файла : 4,41 Гбайт
Продолжительность : 1 ч. 41 м.
Общий поток : 6244 Кбит/сек
Дата кодирования : UTC 2015-06-16 22:18:00
Программа кодирования : mkvmerge v7.9.0 ('Birds') 64bit
Библиотека кодирования : libebml v1.3.1 + libmatroska v1.4.2
DURATION : 01:37:48.355000000
NUMBER_OF_FRAMES : 748
NUMBER_OF_BYTES : 26357
_STATISTICS_WRITING_APP : mkvmerge v7.9.0 ('Birds') 64bit
_STATISTICS_WRITING_DATE_UTC : 2015-06-16 22:18:00
_STATISTICS_TAGS : BPS DURATION NUMBER_OF_FRAMES NUMBER_OF_BYTES
Видео
Идентификатор : 1
Формат : AVC
Формат/Информация : Advanced Video Codec
Профиль формата : High@L4.1
Параметр CABAC формата : Да
Параметр ReFrames формата : 12 кадров
Идентификатор кодека : V_MPEG4/ISO/AVC
Продолжительность : 1 ч. 41 м.
Битрейт : 5300 Кбит/сек
Ширина : 1280 пикселей
Высота : 536 пикселей
Соотношение сторон : 2,40:1
Режим частоты кадров : Постоянный
Частота кадров : 23,976 кадра/сек
Цветовое пространство : YUV
Субдискретизация насыщенности : 4:2:0
Битовая глубина : 8 бит
Тип развёртки : Прогрессивная
Бит/(Пиксели*Кадры) : 0.322
Размер потока : 3,65 Гбайт (83%)
Заголовок : Girlhouse.2014.BDRip.720p.Sub.Eng
Библиотека кодирования : x264 core 142 r2409+42 04be48a tMod [8-bit@all X86_64]
Настройки программы : cabac=1 / ref=12 / deblock=1:-3:-3 / analyse=0x3:0x133 / me=umh / subme=11 / psy=1 / fade_compensate=0.00 / psy_rd=1.00:0.15 / mixed_ref=1 / me_range=24 / chroma_me=1 / trellis=2 / 8x8dct=1 / cqm=0 / deadzone=21,11 / fast_pskip=1 / chroma_qp_offset=-3 / threads=12 / lookahead_threads=2 / sliced_threads=0 / nr=0 / decimate=1 / interlaced=0 / bluray_compat=0 / constrained_intra=0 / fgo=0 / bframes=8 / b_pyramid=2 / b_adapt=2 / b_bias=0 / direct=3 / weightb=1 / open_gop=0 / weightp=2 / keyint=240 / keyint_min=23 / scenecut=40 / intra_refresh=0 / rc_lookahead=60 / rc=2pass / mbtree=1 / bitrate=5300 / ratetol=1.0 / qcomp=0.60 / qpmin=10:10:10 / qpmax=51:51:51 / qpstep=4 / cplxblur=20.0 / qblur=0.5 / vbv_maxrate=40000 / vbv_bufsize=30000 / nal_hrd=none / filler=0 / ip_ratio=1.40 / aq=1:1.00 / aq-sensitivity=10.00 / aq-factor=1.00:1.00:1.00 / aq2=0 / aq3=0
Язык : English
Default : Да
Forced : Нет
Аудио #1
Идентификатор : 2
Формат : AC-3
Формат/Информация : Audio Coding 3
Расширение режима : CM (complete main)
Параметр Endianness формата : Big
Идентификатор кодека : A_AC3
Продолжительность : 1 ч. 41 м.
Вид битрейта : Постоянный
Битрейт : 192 Кбит/сек
Каналы : 2 канала
Расположение каналов : Front: L R
Частота : 48,0 КГц
Метод сжатия : С потерями
Размер потока : 139 Мбайт (3%)
Заголовок : Russian AC3 @192 kbps
Язык : Russian
Default : Да
Forced : Нет
Аудио #2
Идентификатор : 3
Формат : DTS
Формат/Информация : Digital Theater Systems
Режим : 16
Параметр Endianness формата : Big
Идентификатор кодека : A_DTS
Продолжительность : 1 ч. 41 м.
Вид битрейта : Постоянный
Битрейт : 768 Кбит/сек
Каналы : 6 каналов
Расположение каналов : Front: L C R, Side: L R, LFE
Частота : 48,0 КГц
Битовая глубина : 24 бит
Метод сжатия : С потерями
Размер потока : 556 Мбайт (12%)
Заголовок : English DTS Core 5.1 @1509 kbps
Язык : English
Default : Нет
Forced : Нет
Текст
Идентификатор : 4
Формат : UTF-8
Идентификатор кодека : S_TEXT/UTF8
Идентификатор кодека/Информация : UTF-8 Plain Text
Заголовок : subtitle eng
Язык : English
Default : Нет
Forced : Нет
Меню
00:00:00.000 : en:Chapter 01
00:09:06.671 : en:Chapter 02
00:17:58.911 : en:Chapter 03
00:27:23.892 : en:Chapter 04
00:36:31.898 : en:Chapter 05
00:45:34.189 : en:Chapter 06
00:54:42.988 : en:Chapter 07
01:03:50.952 : en:Chapter 08
01:12:59.124 : en:Chapter 09
01:22:07.881 : en:Chapter 10
01:31:14.427 : en:Chapter 11
01:37:43.274 : en:Chapter 12
01:41:06.935 : en:Chapter 13
Скриншоты x264 info
x264 [info]: profile High, level 4.1
x264 [info]: frame I:1263 Avg QP:12.30 size:116760
x264 [info]: frame P:34146 Avg QP:14.40 size: 49872
x264 [info]: frame B:110076 Avg QP:15.88 size: 19585
x264 [info]: consecutive B-frames: 3.3% 3.6% 12.2% 19.0% 16.5% 34.2% 5.5% 2.2% 3.6%
encoded 145485 frames, 10.48 fps, 5281.79 kb/s
Скачать

Скачать торрент!

Как скачивать? · Что такое торрент? · Рейтинг и ограничения

Сайт не распространяет и не хранит электронные версии произведений, а лишь предоставляет доступ к создаваемому пользователями каталогу ссылок на торрент-файлы, которые содержат только списки хеш-сумм

[Профиль] [ЛС]
Показать сообщения:    
Ответить на тему

Текущее время: Сегодня 10:46

Часовой пояс: GMT + 4



Вы не можете начинать темы
Вы не можете отвечать на сообщения
Вы не можете редактировать свои сообщения
Вы не можете удалять свои сообщения
Вы не можете голосовать в опросах
Вы не можете прикреплять файлы к сообщениям
Вы не можете скачивать файлы