Испытание Акилы / Akeelah and the Bee (Даг Этчисон / Doug Atchison) [2006, США, драма, WEB-DL 720p] MVO (Инис) + MVO + Original (Eng) + Sub (Eng)

Ответить на тему
 
Автор Сообщение

user ®

Стаж: 7 лет 7 месяцев

Сообщений: 20008

Пост Пост: #1 от 19-Июн-2015 00:12

[Цитировать]

Испытание Акилы / Akeelah and the Bee
Год выпуска: 2006
Страна: США
Жанр: драма
Продолжительность: 01:52:58
Перевод №1: профессиональный многоголосый закадровый (Инис)
Перевод №1: профессиональный многоголосый закадровый
Cубтитры: английские
Оригинальная аудиодорожка: английская
Оглавление: 24 англоязычные главы
Режиссёр: Даг Этчисон /Doug Atchison/
В ролях: Кеке Палмер /Keke Palmer/, Лоренс Фишбёрн /Laurence Fishburne/, Анджела Бассетт /Angela Bassett/, Кертис Армстронг /Curtis Armstrong/, Х.Р. Вильярреаль /J.R. Villarreal/, Шон Майкл /Sean Michael Afable/, Сахара Гари /Sahara Garey/, Ли Томпсон Янг /Lee Thompson Young/
Описание:
В США очень популярны конкурсы орфографии: участнику задаётся сложное слово, а он должен произнести его по буквам без ошибок. Одиннадцатилетняя Акила успешно участвует в конкурсах в своей школе, не допуская ни одной ошибки, и попадает на общешкольный турнир. Своим выступлением она привлекает внимание специалиста по английскому языку, который считает, что Акила способна выиграть национальный конкурс по орфографии.
Дополнительная информация:
IMDB User Rating→: 7.5/10 (14,216 votes)
Рейтинг фильма КиноПоиск.Ru→: 7.196 (445 голосов)
  • 5.1 дорожка студии «Инис» с [url=http://***/forum/viewtopic.php?t=3533049]DVD[/url] оказалась дутой — звук только в фронтах, остальные каналы пустые;
  • Оригинальная дорога, субтитры и главы взяты с DVD R1.
    Качество: WEB-DL (thnx alfablac)
    Контейнер: MKV
    Видеопоток: 1280x544p, 23.976 fps, x264 ~3907 kbps
    Аудиопоток №1 (RUS): DD 2.0, 48 kHz, 224 kbps | профессиональный многоголосый закадровый (Инис)
    Аудиопоток №2 (RUS): DD 2.0, 48 kHz, 192 kbps | профессиональный многоголосый закадровый
    Аудиопоток №3 (ENG): DD 5.1, 48 kHz, 448 kbps
    Субтитры (ENG): SRT/UTF8
    Сэмпл: Яндекс.Диск→, multi-up→, nekaka→, sendspace→
    MediaInfo
General
Unique ID                                : 173006003579691243605345465305731121478 (0x8227BE897B104D32B511A93772874146)
Complete name                            : Akeelah.and.the.Bee.2006.720p.WEB-DL.H.264.DD.SRT.mkv
Format                                   : Matroska
Format version                           : Version 4 / Version 2
File size                                : 3.77 GiB
Duration                                 : 1h 52mn
Overall bit rate                         : 4 773 Kbps
Movie name                               : Akeelah and the Bee (2006) 720p WEB-DL
Encoded date                             : UTC 2015-06-18 07:05:15
Writing application                      : mkvmerge v7.8.0 ('River Man') 64bit built on Mar 27 2015 16:31:37
Writing library                          : libebml v1.3.1 + libmatroska v1.4.2
_STATISTICS_WRITING_APP                  : mkvmerge v7.8.0 ('River Man') 64bit built on Mar 27 2015 16:31:37
_STATISTICS_WRITING_DATE_UTC             : 2015-06-18 07:05:15
_STATISTICS_TAGS                         : BPS DURATION NUMBER_OF_FRAMES NUMBER_OF_BYTES
DURATION                                 : 01:52:39.712000000
NUMBER_OF_FRAMES                         : 1748
NUMBER_OF_BYTES                          : 62739
Video
ID                                       : 1
Format                                   : AVC
Format/Info                              : Advanced Video Codec
Format profile                           : Main@L3.1
Format settings, CABAC                   : No
Format settings, ReFrames                : 2 frames
Codec ID                                 : V_MPEG4/ISO/AVC
Duration                                 : 1h 52mn
Bit rate                                 : 3 814 Kbps
Width                                    : 1 280 pixels
Height                                   : 544 pixels
Display aspect ratio                     : 2.35:1
Frame rate mode                          : Constant
Frame rate                               : 23.976 fps
Color space                              : YUV
Chroma subsampling                       : 4:2:0
Bit depth                                : 8 bits
Scan type                                : Progressive
Bits/(Pixel*Frame)                       : 0.228
Stream size                              : 3.01 GiB (80%)
Title                                    : 1280x544, 23.976 fps, x264 ~3907 kbps
Language                                 : English
Default                                  : Yes
Forced                                   : No
Color range                              : Limited
Color primaries                          : BT.709
Transfer characteristics                 : BT.709
Matrix coefficients                      : BT.709
Audio #1
ID                                       : 2
Format                                   : AC-3
Format/Info                              : Audio Coding 3
Mode extension                           : CM (complete main)
Format settings, Endianness              : Big
Codec ID                                 : A_AC3
Duration                                 : 1h 52mn
Bit rate mode                            : Constant
Bit rate                                 : 224 Kbps
Channel(s)                               : 2 channels
Channel positions                        : Front: L R
Sampling rate                            : 48.0 KHz
Bit depth                                : 16 bits
Compression mode                         : Lossy
Stream size                              : 181 MiB (5%)
Title                                    : RUS MVO Инис DD 2.0, 48 kHz, 224 kbps
Language                                 : Russian
Default                                  : Yes
Forced                                   : No
Audio #2
ID                                       : 3
Format                                   : AC-3
Format/Info                              : Audio Coding 3
Mode extension                           : CM (complete main)
Format settings, Endianness              : Big
Codec ID                                 : A_AC3
Duration                                 : 1h 52mn
Bit rate mode                            : Constant
Bit rate                                 : 192 Kbps
Channel(s)                               : 2 channels
Channel positions                        : Front: L R
Sampling rate                            : 48.0 KHz
Bit depth                                : 16 bits
Compression mode                         : Lossy
Stream size                              : 155 MiB (4%)
Title                                    : RUS MVO DD 2.0, 48 kHz, 192 kbps
Language                                 : Russian
Default                                  : No
Forced                                   : No
Audio #3
ID                                       : 4
Format                                   : AC-3
Format/Info                              : Audio Coding 3
Mode extension                           : CM (complete main)
Format settings, Endianness              : Big
Codec ID                                 : A_AC3
Duration                                 : 1h 52mn
Bit rate mode                            : Constant
Bit rate                                 : 448 Kbps
Channel(s)                               : 6 channels
Channel positions                        : Front: L C R, Side: L R, LFE
Sampling rate                            : 48.0 KHz
Bit depth                                : 16 bits
Compression mode                         : Lossy
Stream size                              : 362 MiB (9%)
Title                                    : ENG DD 5.1, 48 kHz, 448 kbps
Language                                 : English
Default                                  : No
Forced                                   : No
Text
ID                                       : 5
Format                                   : UTF-8
Codec ID                                 : S_TEXT/UTF8
Codec ID/Info                            : UTF-8 Plain Text
Title                                    : ENG SRT
Language                                 : English
Default                                  : No
Forced                                   : No
Menu
00:00:00.000                             : en:Introduction
00:03:29.167                             : en:ESPN
00:08:39.728                             : en:School Spelling Bee
00:13:07.203                             : en:Do it for Dad
00:16:55.431                             : en:Dr. Larabee
00:20:26.110                             : en:District Spelling Bee
00:27:48.959                             : en:Caught Cheating
00:32:10.262                             : en:Woodland Hills
00:38:07.619                             : en:I Need a Coach
00:42:13.114                             : en:Javier's Birthday Party
00:47:14.832                             : en:Words to Change the World
00:51:37.970                             : en:I'm Not in the Mood
00:55:27.950                             : en:Regional Spelling Bee
01:02:34.876                             : en:Being Honored
01:08:00.410                             : en:It's So Hard
01:10:46.909                             : en:50,000 Coaches
01:16:04.351                             : en:Denise
01:20:59.354                             : en:Off to D.C.
01:24:42.953                             : en:Scripps National Spelling Bee
01:28:55.330                             : en:Eliminations
01:33:52.252                             : en:Break Time
01:36:37.583                             : en:Xanthosis
01:40:35.363                             : en:Head to Head
01:45:47.216                             : en:Credits
Скриншоты
Скачать

Скачать торрент!

Как скачивать? · Что такое торрент? · Рейтинг и ограничения

Сайт не распространяет и не хранит электронные версии произведений, а лишь предоставляет доступ к создаваемому пользователями каталогу ссылок на торрент-файлы, которые содержат только списки хеш-сумм

[Профиль] [ЛС]
Показать сообщения:    
Ответить на тему

Текущее время: Сегодня 02:21

Часовой пояс: GMT + 4



Вы не можете начинать темы
Вы не можете отвечать на сообщения
Вы не можете редактировать свои сообщения
Вы не можете удалять свои сообщения
Вы не можете голосовать в опросах
Вы не можете прикреплять файлы к сообщениям
Вы не можете скачивать файлы