Дэрил / D.A.R.Y.L. (Саймон Уинсер / Simon Wincer) [1985, Великобритания, США, фантастика, семейный, WEB-DL 720p] MVO (1 канал) + Sub Rus + Original Eng

Ответить на тему
 
Автор Сообщение

user ®

Стаж: 7 лет 7 месяцев

Сообщений: 20008

Пост Пост: #1 от 18-Июн-2015 21:06

[Цитировать]

Дэрил / D.A.R.Y.L.
Страна: Великобритания, США
Жанр: фантастика, семейный
Год выпуска: 1985
Продолжительность: 01:40:08
Перевод: Профессиональный (многоголосый закадровый) 1 канал
Cубтитры: русские
Оригинальная аудиодорожка: английский
Режиссер: Саймон Уинсер / Simon Wincer
В ролях: Бэррет Оливер, Мэри Бет Хёрт, Майкл МакКин, Кэтрин Уолкер, Коллин Кэмп, Йозеф Зоммер, Рон Фрэзиер, Стив Райан, Дэвид Уол, Дэнни Коркилл, Эми Линкер...
Описание: Молодая супружеская пара усыновляет найденного в лесу мальчика, который страдает частичной потерей памяти, но обладает уникальными способностями. Он научился играть на пианино за несколько минут, в школе показал потрясающие знания, а в бейсбол играл на зависть профессионалам.
Он был идеальным сыном, что казалось несколько странным. Подозрения не были беспочвенными — Дэрил оказался андроидом, украденным с секретной военной базы.
Доп. информация: Звук с раздачи tash_mc, в других раздачах звук с неё же. 5.1 в HDTV дутый, во всех каналах звучит речь.
Сэмпл: http://multi-up.com/1054140
Тип релиза: WEB-DL 720p
Контейнер: MKV
Видео: 1280x536 (2.40:1), 23.976 fps, AVC, ~3821 Kbps, 0.232 bits/pixel
Аудио 1: Russian, 48.0 KHz, AC3, 2 ch, 192 Kbps - 1 канал
Аудио 2: English, 48.0 KHz, AC3, 2 ch, 192 Kbps

Сравнение
[url=http://***/forum/viewtopic.php?t=3787953]http://***/forum/viewtopic.php?t=3787953[/url]
HDTV | WEB-DL


MediaInfo
General
Unique ID : 251341428674483329406932538603700880534 (0xBD16992F19603C2F99D260787C260496)
Complete name : D:\D.A.R.Y.L. WEB-DL 720p.mkv
Format : Matroska
Format version : Version 4 / Version 2
File size : 3.00 GiB
Duration : 1h 40mn
Overall bit rate : 4 290 Kbps
Movie name :
Encoded date : UTC 2015-06-16 18:44:37
Writing application : mkvmerge v7.9.0 ('Birds') 64bit
Writing library : libebml v1.3.1 + libmatroska v1.4.2
DURATION : 01:34:28.930000000
NUMBER_OF_FRAMES : 1022
NUMBER_OF_BYTES : 35939
_STATISTICS_WRITING_APP : mkvmerge v7.9.0 ('Birds') 64bit
_STATISTICS_WRITING_DATE_UT : 2015-06-16 18:44:37
_STATISTICS_TAGS : BPS DURATION NUMBER_OF_FRAMES NUMBER_OF_BYTES
Video
ID : 1
Format : AVC
Format/Info : Advanced Video Codec
Format profile : Main@L3.1
Format settings, CABAC : No
Format settings, ReFrames : 2 frames
Codec ID : V_MPEG4/ISO/AVC
Duration : 1h 40mn
Bit rate : 3 821 Kbps
Width : 1 280 pixels
Height : 536 pixels
Display aspect ratio : 2.40:1
Frame rate mode : Constant
Frame rate : 23.976 fps
Color space : YUV
Chroma subsampling : 4:2:0
Bit depth : 8 bits
Scan type : Progressive
Bits/(Pixel*Frame) : 0.232
Stream size : 2.67 GiB (89%)
Language : English
Default : Yes
Forced : No
Color range : Limited
Color primaries : BT.709
Transfer characteristics : BT.709
Matrix coefficients : BT.709
Audio #1
ID : 2
Format : AC-3
Format/Info : Audio Coding 3
Mode extension : CM (complete main)
Format settings, Endianness : Big
Codec ID : A_AC3
Duration : 1h 40mn
Bit rate mode : Constant
Bit rate : 192 Kbps
Channel(s) : 2 channels
Channel positions : Front: L R
Sampling rate : 48.0 KHz
Compression mode : Lossy
Stream size : 138 MiB (4%)
Title : 1 канал
Language : Russian
Default : Yes
Forced : No
Audio #2
ID : 3
Format : AC-3
Format/Info : Audio Coding 3
Format profile : Dolby Digital
Mode extension : CM (complete main)
Format settings, Endianness : Big
Codec ID : A_AC3
Duration : 1h 40mn
Bit rate mode : Constant
Bit rate : 192 Kbps
Channel(s) : 2 channels
Channel positions : Front: L R
Sampling rate : 48.0 KHz
Compression mode : Lossy
Stream size : 138 MiB (4%)
Language : English
Default : No
Forced : No
Text #1
ID : 4
Format : UTF-8
Codec ID : S_TEXT/UTF8
Codec ID/Info : UTF-8 Plain Text
Language : Russian
Default : No
Forced : No
Text #2
ID : 5
Format : UTF-8
Codec ID : S_TEXT/UTF8
Codec ID/Info : UTF-8 Plain Text
Language : English
Default : No
Forced : No
Menu
00:00:00.000 : en:The Welfare of D.A.R.Y.L.
00:08:23.000 : en:Getting Acquainted
00:16:22.000 : en:A Natural Genius
00:25:30.000 : en:Not So Perfect
00:35:49.000 : en:D.A.R.Y.L.'s Real Family
00:46:16.000 : en:The Memory Chip
00:53:49.000 : en:Terminating Youth Lifeform
00:58:05.000 : en:Human Emotions
01:09:51.000 : en:More Than A Machine
01:19:49.000 : en:You Are Real
01:26:16.000 : en:Flight Plans
01:32:33.000 : en:Home
Скриншоты
Скачать

Скачать торрент!

Как скачивать? · Что такое торрент? · Рейтинг и ограничения

Сайт не распространяет и не хранит электронные версии произведений, а лишь предоставляет доступ к создаваемому пользователями каталогу ссылок на торрент-файлы, которые содержат только списки хеш-сумм

[Профиль] [ЛС]
Показать сообщения:    
Ответить на тему

Текущее время: Сегодня 12:27

Часовой пояс: GMT + 4



Вы не можете начинать темы
Вы не можете отвечать на сообщения
Вы не можете редактировать свои сообщения
Вы не можете удалять свои сообщения
Вы не можете голосовать в опросах
Вы не можете прикреплять файлы к сообщениям
Вы не можете скачивать файлы