Мэри и Марта / Mary and Martha (Филлип Нойс / Phillip Noyce) [2013, Великобритания, США, драма, BDRip 720p] DVO (Студия NLS) + Sub Rus, Eng + Original Eng

Ответить на тему
 
Автор Сообщение

user ®

Стаж: 7 лет 7 месяцев

Сообщений: 20008

Пост Пост: #1 от 18-Июн-2015 02:27

[Цитировать]

Мэри и Марта / Mary and Martha
Страна: Великобритания, США
Студия: BBC Television Centre / HBO Films / NBC Universal Television
Жанр: драма
Год выпуска: 2013
Продолжительность: 01:33:14
Перевод: Профессиональный (двухголосый закадровый) Студия NLS
Cубтитры: русские, английские
Оригинальная аудиодорожка: английский
Режиссер: Филлип Нойс / Phillip Noyce
В ролях: Хилари Суэнк, Бренда Блетин, Сэм Клафлин, Фрэнк Грилло, Люкс Хэйни-Джардин, Бонго Мбутума, Йен Редфорд, Джеймс Вудс
Описание: Лишившись сыновей, две совершенно разные женщины отправляются в далёкую Африку, чтобы посвятить себя борьбе с ужасной болезнью, исковеркавшей их судьбы…

Сэмпл: http://multi-up.com/1053964
Тип релиза: BDRip 720p
Контейнер: MKV
Видео: MPEG4 Video (H264) 1280x720 23.976fps 7 774 Kbps
Аудио: Russian AC-3 / 2 ch / 48.0 KHz / 192 Kbps
Аудио 2: English AC-3 / 6 ch / 48.0 KHz / 640 Kbps
Формат субтитров: softsub (SRT)

MediaInfo
General
Unique ID : 252175919170659383576127229547057075308 (0xBDB750BDF354D2D6A248A5834AA5546C)
Complete name : C:\Users\Вика\Desktop\Mary.and.Martha.2013.720p.BDRip.mkv
Format : Matroska
Format version : Version 4 / Version 2
File size : 5.90 GiB
Duration : 1h 36mn
Overall bit rate : 8 780 Kbps
Encoded date : UTC 2015-06-16 05:14:06
Writing application : mkvmerge v7.4.0 ('Circles') 64bit built on Dec 12 2014 12:19:56
Writing library : libebml v1.3.0 + libmatroska v1.4.1
_STATISTICS_WRITING_APP : mkvmerge v7.4.0 ('Circles') 64bit built on Dec 12 2014 12:19:56
_STATISTICS_WRITING_DATE_UTC : 2015-06-16 05:14:06
_STATISTICS_TAGS : BPS DURATION NUMBER_OF_FRAMES NUMBER_OF_BYTES
DURATION : 01:32:27.375000000
NUMBER_OF_FRAMES : 1613
NUMBER_OF_BYTES : 42217
Video
ID : 1
Format : AVC
Format/Info : Advanced Video Codec
Format profile : High@L4.1
Format settings, CABAC : Yes
Format settings, ReFrames : 9 frames
Codec ID : V_MPEG4/ISO/AVC
Duration : 1h 36mn
Bit rate : 7 774 Kbps
Width : 1 280 pixels
Height : 720 pixels
Display aspect ratio : 16:9
Frame rate mode : Constant
Frame rate : 23.976 fps
Color space : YUV
Chroma subsampling : 4:2:0
Bit depth : 8 bits
Scan type : Progressive
Bits/(Pixel*Frame) : 0.352
Stream size : 5.22 GiB (89%)
Writing library : x264 core 146 r2538kMod 121396c
Encoding settings : cabac=1 / ref=9 / deblock=1:-3:-3 / analyse=0x3:0x133 / me=umh / subme=10 / psy=1 / fade_compensate=0.00 / psy_rd=1.08:0.00 / mixed_ref=1 / me_range=24 / chroma_me=1 / trellis=2 / 8x8dct=1 / cqm=0 / deadzone=21,11 / fast_pskip=1 / chroma_qp_offset=-2 / threads=6 / lookahead_threads=1 / sliced_threads=0 / nr=0 / decimate=1 / interlaced=0 / bluray_compat=0 / constrained_intra=0 / fgo=0 / bframes=11 / b_pyramid=2 / b_adapt=2 / b_bias=0 / direct=3 / weightb=1 / open_gop=0 / weightp=2 / keyint=250 / keyint_min=23 / scenecut=40 / intra_refresh=0 / rc=crf / mbtree=0 / crf=16.3000 / qcomp=0.65 / qpmin=0 / qpmax=69 / qpstep=4 / ip_ratio=1.30 / pb_ratio=1.20 / aq=3:0.68
Language : English
Default : Yes
Forced : No
Matrix coefficients : BT.709
_STATISTICS_WRITING_APP : mkvmerge v7.4.0 ('Circles') 64bit built on Dec 12 2014 12:19:56
_STATISTICS_WRITING_DATE_UTC : 2015-06-16 05:14:06
_STATISTICS_TAGS : BPS DURATION NUMBER_OF_FRAMES NUMBER_OF_BYTES
DURATION : 01:33:14.339000000
NUMBER_OF_FRAMES : 134130
NUMBER_OF_BYTES : 5742092054
Audio #1
ID : 2
Format : AC-3
Format/Info : Audio Coding 3
Mode extension : CM (complete main)
Format settings, Endianness : Big
Codec ID : A_AC3
Duration : 1h 36mn
Bit rate mode : Constant
Bit rate : 192 Kbps
Channel(s) : 2 channels
Channel positions : Front: L R
Sampling rate : 48.0 KHz
Bit depth : 16 bits
Compression mode : Lossy
Stream size : 132 MiB (2%)
Language : Russian
Default : Yes
Forced : No
Audio #2
ID : 3
Format : AC-3
Format/Info : Audio Coding 3
Mode extension : CM (complete main)
Format settings, Endianness : Big
Codec ID : A_AC3
Duration : 1h 36mn
Bit rate mode : Constant
Bit rate : 640 Kbps
Channel(s) : 6 channels
Channel positions : Front: L C R, Side: L R, LFE
Sampling rate : 48.0 KHz
Bit depth : 16 bits
Compression mode : Lossy
Stream size : 440 MiB (7%)
Language : English
Default : No
Forced : No
Text #1
ID : 4
Format : UTF-8
Codec ID : S_TEXT/UTF8
Codec ID/Info : UTF-8 Plain Text
Language : Russian
Default : No
Forced : No
Text #2
ID : 5
Format : UTF-8
Codec ID : S_TEXT/UTF8
Codec ID/Info : UTF-8 Plain Text
Language : English
Default : No
Forced : No
Menu
00:00:00.000 : en:00:00:00.000
00:12:32.210 : en:00:12:32.210
00:25:23.063 : en:00:25:23.063
00:36:59.759 : en:00:36:59.759
00:57:13.680 : en:00:57:13.680
01:08:17.385 : en:01:08:17.385
01:17:47.371 : en:01:17:47.371
01:29:29.656 : en:01:29:29.656
Скриншоты
Скачать

Скачать торрент!

Как скачивать? · Что такое торрент? · Рейтинг и ограничения

Сайт не распространяет и не хранит электронные версии произведений, а лишь предоставляет доступ к создаваемому пользователями каталогу ссылок на торрент-файлы, которые содержат только списки хеш-сумм

[Профиль] [ЛС]
Показать сообщения:    
Ответить на тему

Текущее время: Сегодня 15:54

Часовой пояс: GMT + 4



Вы не можете начинать темы
Вы не можете отвечать на сообщения
Вы не можете редактировать свои сообщения
Вы не можете удалять свои сообщения
Вы не можете голосовать в опросах
Вы не можете прикреплять файлы к сообщениям
Вы не можете скачивать файлы