Водная страна / Waterland (Стивен Джилленхол / Stephen Gyllenhaal) [1992, Великобритания, драма, WEB-DL 720p] MVO (НТВ+) + Sub Rus, Eng + Original Eng

Ответить на тему
 
Автор Сообщение

user ®

Стаж: 7 лет 7 месяцев

Сообщений: 20008

Пост Пост: #1 от 18-Июн-2015 02:27

[Цитировать]

Водная страна / Waterland
Страна: Великобритания
Студия: British Screen Productions, Channel Four Films и др.
Жанр: драма
Год выпуска: 1992
Продолжительность: 01:34:58
Перевод: Профессиональный (многоголосый закадровый) НТВ+
Cубтитры: русские, английские
Оригинальная аудиодорожка: английский
Режиссер: Стивен Джилленхол / Stephen Gyllenhaal
В ролях: Джереми Айронс, Этан Хоук, Шинед Кьюсак, Грант Варнок, Лина Хиди, Каллум Диксон, Шон Магвайр, Росс МакКолл, Пит Постлетуэйт, Дэвид Моррисси, Джон Хёрд, Мэгги Джилленхол, Кара Буоно, Стюарт Ричман, Сири Нил, Гарет Томас, Гарет Томас, Сюзанна Феллоуз, Ларри Джон Мейерс
Описание: Пытаясь заинтересовать детей историей, учитель рассказывает на уроках о своей жизни — о себе, о своих деде и отце, о том времени, когда они жили, о Первой мировой войне и ее ужасах, о своей матери, брате и жене. Это тоже история, полная и радости, и горя. Из таких маленьких историй и состоит большая История, и без этих отдельных людей ее бы не было. Мощная и оригинальная драма, действие которой происходит в Англии в воспоминаниях и в Америке 1974 года - в Питтсбурге.

Sample
Тип релиза: WEB-DL 720p
Контейнер: MKV
Видео: MPEG4 AVC Video, H264, 16:9, 1280x544, 23.976 fps, 3818 kbps
Аудио: Russian (AC3, 2 ch, 192 kbps, 16 bits, 48.0 KHz) - MVO
Аудио 2: English (AC3, 6 ch, 448 kbps, 16 bits, 48.0 KHz) - оригинал
Формат субтитров: softsub (SRT)

MediaInfo
General
Unique ID : 182176235865258351031898128966548842704 (0x890DDDE559CD40A2AA261527CA1DE8D0)
Complete name : E:\1\Waterland 1992 WEB-DL 720p.mkv
Format : Matroska
Format version : Version 4 / Version 2
File size : 3.02 GiB
Duration : 1h 34mn
Overall bit rate : 4 548 Kbps
Encoded date : UTC 2015-06-16 11:58:28
Writing application : mkvmerge v6.1.0 ('Old Devil') built on Mar 2 2013 14:32:37
Writing library : libebml v1.3.0 + libmatroska v1.4.0
Video
ID : 1
Format : AVC
Format/Info : Advanced Video Codec
Format profile : Main@L3.1
Format settings, CABAC : No
Format settings, ReFrames : 2 frames
Codec ID : V_MPEG4/ISO/AVC
Duration : 1h 34mn
Bit rate : 3 818 Kbps
Width : 1 280 pixels
Height : 544 pixels
Display aspect ratio : 2.35:1
Frame rate mode : Constant
Frame rate : 23.976 fps
Color space : YUV
Chroma subsampling : 4:2:0
Bit depth : 8 bits
Scan type : Progressive
Bits/(Pixel*Frame) : 0.229
Stream size : 2.53 GiB (84%)
Language : English
Default : Yes
Forced : No
Color primaries : BT.709
Transfer characteristics : BT.709
Matrix coefficients : BT.709
Audio #1
ID : 2
Format : AC-3
Format/Info : Audio Coding 3
Mode extension : CM (complete main)
Format settings, Endianness : Big
Codec ID : A_AC3
Duration : 1h 34mn
Bit rate mode : Constant
Bit rate : 192 Kbps
Channel count : 2 channels
Channel positions : Front: L R
Sampling rate : 48.0 KHz
Bit depth : 16 bits
Compression mode : Lossy
Stream size : 130 MiB (4%)
Language : Russian
Default : Yes
Forced : Yes
Audio #2
ID : 3
Format : AC-3
Format/Info : Audio Coding 3
Mode extension : CM (complete main)
Format settings, Endianness : Big
Codec ID : A_AC3
Duration : 1h 34mn
Bit rate mode : Constant
Bit rate : 448 Kbps
Channel count : 6 channels
Channel positions : Front: L C R, Side: L R, LFE
Sampling rate : 48.0 KHz
Bit depth : 16 bits
Compression mode : Lossy
Stream size : 304 MiB (10%)
Language : English
Default : No
Forced : No
Text #1
ID : 4
Format : UTF-8
Codec ID : S_TEXT/UTF8
Codec ID/Info : UTF-8 Plain Text
Language : Russian
Default : No
Forced : No
Text #2
ID : 5
Format : UTF-8
Codec ID : S_TEXT/UTF8
Codec ID/Info : UTF-8 Plain Text
Language : English
Default : No
Forced : No
Menu
00:00:00.000 : en:1
00:10:05.000 : en:2
00:20:20.000 : en:3
00:29:34.000 : en:4
00:40:37.000 : en:5
00:49:15.000 : en:6
00:59:39.000 : en:7
01:10:17.000 : en:8
01:19:52.000 : en:9
01:31:03.000 : en:10
Скриншоты
Скачать

Скачать торрент!

Как скачивать? · Что такое торрент? · Рейтинг и ограничения

Сайт не распространяет и не хранит электронные версии произведений, а лишь предоставляет доступ к создаваемому пользователями каталогу ссылок на торрент-файлы, которые содержат только списки хеш-сумм

[Профиль] [ЛС]
Показать сообщения:    
Ответить на тему

Текущее время: Сегодня 06:01

Часовой пояс: GMT + 4



Вы не можете начинать темы
Вы не можете отвечать на сообщения
Вы не можете редактировать свои сообщения
Вы не можете удалять свои сообщения
Вы не можете голосовать в опросах
Вы не можете прикреплять файлы к сообщениям
Вы не можете скачивать файлы