Удачное наследство / Вперёд на всех рысях / Hot to Trot (Майкл Диннер / Michael Dinner) [1988, США, фэнтези, комедия, WEB-DL 720p] MVO (СТС) + AVO (Андрей Гаврилов) + Sub Eng + Original Eng

Ответить на тему
 
Автор Сообщение

user ®

Стаж: 7 лет 7 месяцев

Сообщений: 20008

Пост Пост: #1 от 18-Июн-2015 02:27

[Цитировать]

Удачное наследство / Вперёд на всех рысях / Hot to Trot
Страна: США
Жанр: фэнтези, комедия
Год выпуска: 1988
Продолжительность: 01:23:12
Перевод 1: Профессиональный (многоголосый закадровый) СТС
Перевод 2: Авторский (одноголосый закадровый) Андрей Гаврилов
Cубтитры: английские
Оригинальная аудиодорожка: английский
Режиссер: Майкл Диннер / Michael Dinner
В ролях: Боб Голдтуэйт, Дэбни Коулмен, Джон Кэнди, Вирджиния Мэдсен, Синди Пикетт, Джим Метцлер, Тим Казурински, Сантос Моралес, Барбара Уиннери, Гарри Клюгер...
Описание: Посредственный брокер Фред Чэни получает счастливое наследство — коня по кличке Дон. Что за умница этот Дон! Он и говорить умеет, и читать, и сидеть, и пить кока-колу из соломинки. Такого толкового жеребца даже в цирке не сыщешь.
Но это еще не всё — Дон умеет играть на бирже, он прирожденный брокер! Работая в одной упряжке на рынке ценных бумаг, конь и его хозяин зарабатывают все деньги Чикаго. И на яблоки хватит коню, и на конфеты для любимой девушки Фреда. Вот что значит, поставить на счастливую лошадку!
Доп. информация: За перевод СТС спасибо A80-200, за перевод Гаврилова спасибо sasikainen. Синхронизация переводов - Dreven.
Сэмпл: http://multi-up.com/1053871
Тип релиза: WEB-DL 720p
Контейнер: MKV
Видео: 1274x720 (16:9), 23.976 fps, AVC, ~3858 Kbps, 0.175 bits/pixel
Аудио 1: Russian, 48.0 KHz, AC3, 2 ch, 192 Kbps - СТС
Аудио 2: Russian, 48.0 KHz, AC3, 2 ch, 192 Kbps - Андрей Гаврилов
Аудио 3: English, 48.0 KHz, AC3, 2 ch, 192 Kbps

MediaInfo
General
Unique ID : 210966840008211703159666476092553146406 (0x9EB6BC4616812484B3EF0DADDF67B026)
Complete name : D:\Hot to Trot. WEB-DL 720p.mkv
Format : Matroska
Format version : Version 4 / Version 2
File size : 2.63 GiB
Duration : 1h 23mn
Overall bit rate : 4 524 Kbps
Movie name :
Encoded date : UTC 2015-06-15 12:45:18
Writing application : mkvmerge v7.9.0 ('Birds') 64bit
Writing library : libebml v1.3.1 + libmatroska v1.4.2
DURATION : 01:23:11.968000000
NUMBER_OF_FRAMES : 155999
NUMBER_OF_BYTES : 119807232
_STATISTICS_WRITING_APP : mkvmerge v7.9.0 ('Birds') 64bit
_STATISTICS_WRITING_DATE_UT : 2015-06-15 12:45:18
_STATISTICS_TAGS : BPS DURATION NUMBER_OF_FRAMES NUMBER_OF_BYTES
Video
ID : 1
Format : AVC
Format/Info : Advanced Video Codec
Format profile : High@L3.1
Format settings, CABAC : No
Format settings, ReFrames : 2 frames
Format settings, GOP : N=1
Codec ID : V_MPEG4/ISO/AVC
Duration : 1h 23mn
Bit rate : 3 858 Kbps
Width : 1 274 pixels
Height : 720 pixels
Display aspect ratio : 16:9
Frame rate mode : Constant
Frame rate : 23.976 fps
Color space : YUV
Chroma subsampling : 4:2:0
Bit depth : 8 bits
Scan type : Progressive
Bits/(Pixel*Frame) : 0.175
Stream size : 2.24 GiB (85%)
Language : English
Default : Yes
Forced : No
Color range : Limited
Color primaries : BT.709
Transfer characteristics : BT.709
Matrix coefficients : BT.709
Audio #1
ID : 2
Format : AC-3
Format/Info : Audio Coding 3
Mode extension : CM (complete main)
Format settings, Endianness : Big
Codec ID : A_AC3
Duration : 1h 23mn
Bit rate mode : Constant
Bit rate : 192 Kbps
Channel(s) : 2 channels
Channel positions : Front: L R
Sampling rate : 48.0 KHz
Compression mode : Lossy
Stream size : 114 MiB (4%)
Title : СТС
Language : Russian
Default : Yes
Forced : No
Audio #2
ID : 3
Format : AC-3
Format/Info : Audio Coding 3
Mode extension : CM (complete main)
Format settings, Endianness : Big
Codec ID : A_AC3
Duration : 1h 23mn
Bit rate mode : Constant
Bit rate : 192 Kbps
Channel(s) : 2 channels
Channel positions : Front: L R
Sampling rate : 48.0 KHz
Compression mode : Lossy
Stream size : 114 MiB (4%)
Title : Андрей Гаврилов
Language : Russian
Default : No
Forced : No
Audio #3
ID : 4
Format : AC-3
Format/Info : Audio Coding 3
Mode extension : CM (complete main)
Format settings, Endianness : Big
Codec ID : A_AC3
Duration : 1h 23mn
Bit rate mode : Constant
Bit rate : 192 Kbps
Channel(s) : 2 channels
Channel positions : Front: L R
Sampling rate : 48.0 KHz
Compression mode : Lossy
Stream size : 114 MiB (4%)
Language : English
Default : No
Forced : No
Text
ID : 5
Format : UTF-8
Codec ID : S_TEXT/UTF8
Codec ID/Info : UTF-8 Plain Text
Language : English
Default : No
Forced : No
Menu
00:00:00.000 : en:Chapter 1.
00:09:20.000 : en:Chapter 2.
00:19:44.000 : en:Chapter 3.
00:29:09.000 : en:Chapter 4.
00:41:08.000 : en:Chapter 5.
00:50:19.000 : en:Chapter 6.
00:58:51.000 : en:Chapter 7.
01:10:25.000 : en:Chapter 8.
01:20:31.000 : en:Chapter 9.
Скриншоты
Скачать

Скачать торрент!

Как скачивать? · Что такое торрент? · Рейтинг и ограничения

Сайт не распространяет и не хранит электронные версии произведений, а лишь предоставляет доступ к создаваемому пользователями каталогу ссылок на торрент-файлы, которые содержат только списки хеш-сумм

[Профиль] [ЛС]
Показать сообщения:    
Ответить на тему

Текущее время: Сегодня 11:53

Часовой пояс: GMT + 4



Вы не можете начинать темы
Вы не можете отвечать на сообщения
Вы не можете редактировать свои сообщения
Вы не можете удалять свои сообщения
Вы не можете голосовать в опросах
Вы не можете прикреплять файлы к сообщениям
Вы не можете скачивать файлы