Ксанаду / Xanadu (Роберт Гринуолд / Robert Greenwald) [1980, США, мюзикл, фэнтези, мелодрама, WEB-DL 720p] MVO + Sub Rus, Eng + Original Eng

Ответить на тему
 
Автор Сообщение

user ®

Стаж: 7 лет 7 месяцев

Сообщений: 20008

Пост Пост: #1 от 18-Июн-2015 02:27

[Цитировать]

Ксанаду / Xanadu
Страна: США
Жанр: мюзикл, фэнтези, мелодрама
Год выпуска: 1980
Продолжительность: 01:35:56
Перевод: Профессиональный (многоголосый закадровый)
Cубтитры: русские, английские
Оригинальная аудиодорожка: английский
Режиссер: Роберт Гринуолд / Robert Greenwald
В ролях: Оливия Ньютон-Джон, Джин Келли, Майкл Бек, Джеймс Слойан, Димитра Арлисс, Кэти Хэнли, Фред МакКэррен, Рен Вудс, Сэндал Бергман, Линн Лэтэм...
Описание: Этот фильм — взгляд в будущее и нежные воспоминания о событиях и жизни в эпоху расцвета Голливуда. Здесь сороковые встречаются с восьмидесятыми на фоне весьма необычной любовной истории и щедро насыщенного мелодиями старомодного мюзикла, в котором звучит вполне современная музыка.
Доп. информация: Звук с раздачи syaochka.
Сэмпл: http://multi-up.com/1054022
Тип релиза: WEB-DL 720p
Контейнер: MKV
Видео: 1280x688 (1.860), 23.976 fps, AVC, ~4193 Kbps, 0.199 bits/pixel
Аудио 1: Russian, 48.0 KHz, AC3, 2 ch, 192 Kbps
Аудио 2: English, 48.0 KHz, AC3, 6 ch, 384 Kbps

Сравнение с DVD MediaInfo
General
Unique ID : 246173625029580899680644626170795016930 (0xB93350CAEB0012FC8D09C076FCA842E2)
Complete name : D:\Xanadu.WEB-DL 720p.mkv
Format : Matroska
Format version : Version 4 / Version 2
File size : 3.26 GiB
Duration : 1h 35mn
Overall bit rate : 4 866 Kbps
Movie name : Xanadu.1980.720p.WEB-DL.DD5.1.H264-FGT
Encoded date : UTC 2015-06-13 18:34:19
Writing application : mkvmerge v7.9.0 ('Birds') 64bit
Writing library : libebml v1.3.1 + libmatroska v1.4.2
DURATION : 01:35:55.584000000
NUMBER_OF_FRAMES : 179862
NUMBER_OF_BYTES : 138134016
_STATISTICS_WRITING_APP : mkvmerge v7.9.0 ('Birds') 64bit
_STATISTICS_WRITING_DATE_UT : 2015-06-13 18:34:19
_STATISTICS_TAGS : BPS DURATION NUMBER_OF_FRAMES NUMBER_OF_BYTES
Video
ID : 1
Format : AVC
Format/Info : Advanced Video Codec
Format profile : High@L3.1
Format settings, CABAC : No
Format settings, ReFrames : 2 frames
Codec ID : V_MPEG4/ISO/AVC
Duration : 1h 35mn
Bit rate : 4 193 Kbps
Width : 1 280 pixels
Height : 688 pixels
Display aspect ratio : 1.85:1
Frame rate mode : Constant
Frame rate : 23.976 fps
Color space : YUV
Chroma subsampling : 4:2:0
Bit depth : 8 bits
Scan type : Progressive
Bits/(Pixel*Frame) : 0.199
Stream size : 2.81 GiB (86%)
Language : English
Default : Yes
Forced : No
Color range : Limited
Color primaries : BT.709
Transfer characteristics : BT.709
Matrix coefficients : BT.709
Audio #1
ID : 2
Format : AC-3
Format/Info : Audio Coding 3
Mode extension : CM (complete main)
Format settings, Endianness : Big
Codec ID : A_AC3
Duration : 1h 35mn
Bit rate mode : Constant
Bit rate : 192 Kbps
Channel(s) : 2 channels
Channel positions : Front: L R
Sampling rate : 48.0 KHz
Compression mode : Lossy
Stream size : 132 MiB (4%)
Language : Russian
Default : Yes
Forced : No
Audio #2
ID : 3
Format : AC-3
Format/Info : Audio Coding 3
Mode extension : CM (complete main)
Format settings, Endianness : Big
Codec ID : A_AC3
Duration : 1h 35mn
Bit rate mode : Constant
Bit rate : 384 Kbps
Channel(s) : 6 channels
Channel positions : Front: L C R, Side: L R, LFE
Sampling rate : 48.0 KHz
Compression mode : Lossy
Stream size : 263 MiB (8%)
Language : English
Default : No
Forced : No
Text #1
ID : 4
Format : UTF-8
Codec ID : S_TEXT/UTF8
Codec ID/Info : UTF-8 Plain Text
Language : Russian
Default : No
Forced : No
Text #2
ID : 5
Format : UTF-8
Codec ID : S_TEXT/UTF8
Codec ID/Info : UTF-8 Plain Text
Language : English
Default : No
Forced : No
Menu
00:00:00.000 : en:Main Titles
00:03:50.000 : en:"I'm Alive" Electric Light Orchestra
00:07:59.000 : en:Sonny at Work
00:12:15.000 : en:Looking for His Muse
00:17:19.000 : en:"Magic" Olivia Newton-John
00:23:47.000 : en:Danny McGuire
00:28:35.000 : en:"Whenever You're Away From Me" Olivia Newton-John & Gene Kelly
00:36:12.000 : en:"Suddenly" Olivia Newton-John & Cliff Richard
00:40:44.000 : en:Believe in a Dream
00:43:20.000 : en:"Dancin" Olivia Newton-John & The Tubes
00:50:10.000 : en:Partners
00:55:31.000 : en:"Don't Walk Away" Electric Light Orchestra
00:59:31.000 : en:"All Over The World" Electric Light Orchestra
01:05:02.000 : en:Kira’s Secret
01:11:11.000 : en:"The Fall" Electric Light Orchestra
01:17:14.000 : en:"Suspended In Time" Olivia Newton-John
01:21:28.000 : en:"Xanadu" Olivia Newton-John & Electric Light Orchestra
01:33:16.000 : en:End Titles
Скриншоты
Скачать

Скачать торрент!

Как скачивать? · Что такое торрент? · Рейтинг и ограничения

Сайт не распространяет и не хранит электронные версии произведений, а лишь предоставляет доступ к создаваемому пользователями каталогу ссылок на торрент-файлы, которые содержат только списки хеш-сумм

[Профиль] [ЛС]
Показать сообщения:    
Ответить на тему

Текущее время: Сегодня 11:39

Часовой пояс: GMT + 4



Вы не можете начинать темы
Вы не можете отвечать на сообщения
Вы не можете редактировать свои сообщения
Вы не можете удалять свои сообщения
Вы не можете голосовать в опросах
Вы не можете прикреплять файлы к сообщениям
Вы не можете скачивать файлы