Великий гипнотизер / The Great Hypnotist / Cui mian da shi (Лэсте Чэнь / Leste Chen) [2014 г., Китай, триллер, драма, детектив, BDRip] AVO (Дольский) + Original Chi + Sub (Rus, Eng)

Ответить на тему
 
Автор Сообщение

user ®

Стаж: 13 лет

Сообщений: 15071

Пост Пост: #1 от 17-Июн-2015 04:48

[Цитировать]

-Великий гипнотизер / The Great Hypnotist / Cui mian da shi Страна: Китай
Студия: Wanda Media Co.
Жанр: триллер, драма, детектив
Год выпуска: 2014
Продолжительность: 01:41:29-Перевод: Авторский (одноголосый, закадровый) А. Дольский
Оригинальная аудиодорожка: китайская
Cубтитры: русские, английские
Режиссер: Лэсте Чэнь / Leste Chen
В ролях: Джин Ху, Жонг Люй, Карен Мок, Яоцин Ван, Сюй Чжэн
Описание: История об известном психологе с блестящей карьерой. Однажды он сталкивается с проблемным пациентом, встречи с которым даются ему непросто…-
Сэмпл: скачать-Релиз от -
Автор рипа: Elheym
Качество: BDRip (источник: / Blu-ray Remux [The_Great_Hypnotist_2014_1080p_BD-Remux_HDCLUB] / 1080p)
Контейнер: AVI
Видео: 720x304 (2.37:1), 24 fps, XviD build 65 ~2175 kbps avg, 0.41 bit/pixel
Аудио #1: Русский: AC3, 5.1, 48 kHz, ~448 Кбит/с | Авторский (одноголосый, закадровый) А. Дольский |
Аудио #2: Китайский: AC3, 5.1, 48 kHz, ~448 Кбит/с | Оригинал |
Субтитры: русские (полные: julz_nsk, hentai), английские (полные)
Размер: 2234.95 Mb (1/2 DVD)
MediaInfo
Полное имя : Velikij.gipnotizer.2014.DUAL.BDRip.XviD.AC3.-HQCLUB.avi
Формат : AVI
Формат/Информация : Audio Video Interleave
Профиль формата : OpenDML
Размер файла : 2,18 Гбайт
Продолжительность : 1 ч. 41 м.
Общий поток : 3079 Кбит/сек
Название фильма : Великий гипнотизёр / The Great Hypnotist / Cui mian da shi (2014) BDRip
Режиссёр : HQCLUB
Программа кодирования : VirtualDubMod 1.5.10.2 (build 2540/release)
Авторское право : Elheym
Примечание : 16.06.2015
Видео
Идентификатор : 0
Формат : MPEG-4 Visual
Профиль формата : Advanced Simple@L5
Параметр BVOP формата : 1
Параметр QPel формата : Нет
Параметр GMC формата : Без точки перехода
Параметр матрицы формата : Выборочная
Идентификатор кодека : XVID
Идентификатор кодека/Подсказка : XviD
Продолжительность : 1 ч. 41 м.
Битрейт : 2165 Кбит/сек
Ширина : 720 пикселей
Высота : 304 пикселя
Соотношение сторон : 2,35:1
Частота кадров : 24,000 кадра/сек
Цветовое пространство : YUV
Субдискретизация насыщенности : 4:2:0
Битовая глубина : 8 бит
Тип развёртки : Прогрессивная
Метод сжатия : С потерями
Бит/(Пиксели*Кадры) : 0.412
Размер потока : 1,53 Гбайт (70%)
Библиотека кодирования : XviD 65
Аудио #1
Идентификатор : 1
Формат : AC-3
Формат/Информация : Audio Coding 3
Расширение режима : CM (complete main)
Параметр Endianness формата : Big
Идентификатор кодека : 2000
Продолжительность : 1 ч. 41 м.
Вид битрейта : Постоянный
Битрейт : 448 Кбит/сек
Каналы : 6 каналов
Расположение каналов : Front: L C R, Side: L R, LFE
Частота : 48,0 КГц
Метод сжатия : С потерями
Размер потока : 325 Мбайт (15%)
Выравнивание : Разделение по промежуткам
Продолжительность промежутка : 42 мс. (1,00 видеокадр)
Время предзагрузки промежутка : 500 мс.
Аудио #2
Идентификатор : 2
Формат : AC-3
Формат/Информация : Audio Coding 3
Расширение режима : CM (complete main)
Параметр Endianness формата : Big
Идентификатор кодека : 2000
Продолжительность : 1 ч. 41 м.
Вид битрейта : Постоянный
Битрейт : 448 Кбит/сек
Каналы : 6 каналов
Расположение каналов : Front: L C R, Side: L R, LFE
Частота : 48,0 КГц
Метод сжатия : С потерями
Размер потока : 325 Мбайт (15%)
Выравнивание : Разделение по промежуткам
Продолжительность промежутка : 42 мс. (1,00 видеокадр)
Время предзагрузки промежутка : 500 мс.
Скриншоты Цитата:
Перевод и озвучивание осуществлены в рамках сервиса от HDCLUB - "Озвучивание". Спонсоры: tambov68, nekazz, gelom, Maike, exact, PufPaf
Скачать

Скачать торрент! Великий гипнотизер / The Great Hypnotist / Cui mian da shi (Лэсте Чэнь / Leste Chen) [2014 г., Китай, триллер, драма, детектив, BDRip] AVO (Дольский) + Original Chi + Sub (Rus, Eng)

Как скачивать? · Что такое торрент? · Рейтинг и ограничения

Сайт не распространяет и не хранит электронные версии произведений, а лишь предоставляет доступ к создаваемому пользователями каталогу ссылок на торрент-файлы, которые содержат только списки хеш-сумм

[Профиль] [ЛС]
Показать сообщения:    
Ответить на тему

Текущее время: Сегодня 18:21

Часовой пояс: GMT + 4



Вы не можете начинать темы
Вы не можете отвечать на сообщения
Вы не можете редактировать свои сообщения
Вы не можете удалять свои сообщения
Вы не можете голосовать в опросах
Вы не можете прикреплять файлы к сообщениям
Вы не можете скачивать файлы