Битва за Скайарк / Battle for Skyark (Саймон Хунг / Saymon Hung) [2015, США, фантастика, боевик, приключения, семейный, HDRip] VO (datynet) + Original Eng

Ответить на тему
 
Автор Сообщение

user ®

Стаж: 7 лет 7 месяцев

Сообщений: 20008

Пост Пост: #1 от 17-Июн-2015 04:48

[Цитировать]

Битва за Скайарк / Battle for Skyark
Страна: США
Жанр: фантастика, боевик, приключения, семейный
Год выпуска: 2015
Продолжительность: 01:28:26
Перевод: Одноголосый закадровый datynet
Cубтитры: нет
Оригинальная аудиодорожка: английский
Режиссер: Саймон Хунг / Simon Hung
В ролях: Каон Мортенсон, Гаррет Коффи, Taylor Coliee, Райли Джейн, Чантал Тхюй, Джада Фейсер, Мэттью Миллер, Кайл Пацек, Джейден Мартин, Алан Петрушевски
Описание: Недалекое будущее. Земля захвачена инопланетными монстрами, и жить на ней стало невозможно. Монстры не только превратили Землю в подобие свалки, но еще и продолжают уничтожать оставшееся немногочисленное население, состоящее в основном из осиротевших в результате продолжительной войны детей. Единственная возможность спастись, это попасть на огромный космический корабль «СкайАрк», являющийся последним выбором для продолжения жизни людей. Отважный сын погибшего командира берет на себя роль спасителя. Он вместе со своими друзьями борется с монстрами, пробиваясь к морю, где СкайАрк должен их всех забрать с погибшей планеты…
Сэмпл: http://multi-up.com/1053184
Качество видео: HDRip
Формат видео: AVI
Видео: Xvid , 720x304 23.976fps , 1818kbps
Аудио: Dolby AC3 , 48000Hz , 2 ch , 192kbps - русский
Аудио 2: Dolby AC3 , 48000Hz , 2 ch , 192kbps - английский
MediaInfo
Формат : AVI
Формат/Информация : Audio Video Interleave
Размер файла : 1,37 Гбайт
Продолжительность : 1 ч. 28 м.
Общий поток : 2217 Кбит/сек
Программа кодирования : VirtualDubMod 1.5.10.3 | www.virtualdub-fr.org || (build 2550/release)
Библиотека кодирования : VirtualDubMod build 2550/release
Видео
Идентификатор : 0
Формат : MPEG-4 Visual
Профиль формата : Advanced Simple@L5
Параметр BVOP формата : 1
Параметр QPel формата : Нет
Параметр GMC формата : Без точки перехода
Параметр матрицы формата : Выборочная
Идентификатор кодека : XVID
Идентификатор кодека/Подсказка : XviD
Продолжительность : 1 ч. 28 м.
Битрейт : 1819 Кбит/сек
Ширина : 720 пикселей
Высота : 304 пикселя
Соотношение сторон : 2,35:1
Частота кадров : 23,976 кадра/сек
Цветовое пространство : YUV
Субдискретизация насыщенности : 4:2:0
Битовая глубина : 8 бит
Тип развёртки : Прогрессивная
Метод сжатия : С потерями
Бит/(Пиксели*Кадры) : 0.347
Размер потока : 1,12 Гбайт (82%)
Библиотека кодирования : XviD 73
Аудио #1
Идентификатор : 1
Формат : AC-3
Формат/Информация : Audio Coding 3
Расширение режима : CM (complete main)
Параметр Endianness формата : Big
Идентификатор кодека : 2000
Продолжительность : 1 ч. 28 м.
Вид битрейта : Постоянный
Битрейт : 192 Кбит/сек
Каналы : 2 канала
Расположение каналов : Front: L R
Частота : 48,0 КГц
Битовая глубина : 16 бит
Метод сжатия : С потерями
Размер потока : 121 Мбайт (9%)
Выравнивание : Разделение по промежуткам
Продолжительность промежутка : 42 мс. (1,00 видеокадр)
Время предзагрузки промежутка : 500 мс.
Аудио #2
Идентификатор : 2
Формат : AC-3
Формат/Информация : Audio Coding 3
Расширение режима : CM (complete main)
Параметр Endianness формата : Big
Идентификатор кодека : 2000
Продолжительность : 1 ч. 28 м.
Вид битрейта : Постоянный
Битрейт : 192 Кбит/сек
Каналы : 2 канала
Расположение каналов : Front: L R
Частота : 48,0 КГц
Битовая глубина : 16 бит
Метод сжатия : С потерями
Размер потока : 121 Мбайт (9%)
Выравнивание : Разделение по промежуткам
Продолжительность промежутка : 42 мс. (1,00 видеокадр)
Время предзагрузки промежутка : 500 мс.
Скриншоты
Скачать

Скачать торрент!

Как скачивать? · Что такое торрент? · Рейтинг и ограничения

Сайт не распространяет и не хранит электронные версии произведений, а лишь предоставляет доступ к создаваемому пользователями каталогу ссылок на торрент-файлы, которые содержат только списки хеш-сумм

[Профиль] [ЛС]
Показать сообщения:    
Ответить на тему

Текущее время: Сегодня 02:13

Часовой пояс: GMT + 4



Вы не можете начинать темы
Вы не можете отвечать на сообщения
Вы не можете редактировать свои сообщения
Вы не можете удалять свои сообщения
Вы не можете голосовать в опросах
Вы не можете прикреплять файлы к сообщениям
Вы не можете скачивать файлы