Старая крепость Пхеньян / Battlefield Heroes / Pyeong-yang-seong (Ли Чон Ик / Lee Jun Ik) [2011, Южная Корея, драма, комедия, HDRip] VO (mi24)

Ответить на тему
 
Автор Сообщение

user ®

Стаж: 13 лет

Сообщений: 15071

Пост Пост: #1 от 17-Июн-2015 01:42

[Цитировать]

Старая крепость Пхеньян / Battlefield Heroes / Pyeong-yang-seong
Страна: Южная Корея
Жанр: драма, комедия
Год выпуска: 2011
Продолжительность: 01:58:49
Перевод: Одноголосый закадровый mi24
Cубтитры: нет
Режиссер: Ли Чон Ик / Lee Jun Ik
В ролях: Чон Джин Ён, Ли Мун Сик, Рю Сын Рён, Юн Чже Мун, Сон Ву Сон, Kim Min-Sang, Chang-gon Song, Ли Кван Су, Син Чжон Гын, Jeon Gi-Gwang
Описание: События этого комедийного фильма разворачиваются в те стародавние времена, когда на корейском полуострове существовало три государства: Силла, Пэкче и Когурё. Король Силла Ким Ю Син вознамерился объединить все три страны и стать правителем объединённого королевства. Силлаские войска уже покорили народ Пэкче, но для полной победы ещё необходимо сразиться с воинами северного государства Когурё и сделать это нужно как можно скорее, чтобы опередить танский Китай, который также стремится получить контроль над полуостровными государствами. Так начинается битва за крепость Пхеньян, в которой встретились войска Силла и Когурё, одно из самых смешных и комичных сражений в корейской истории…
Релиз от -
Сэмпл: http://multi-up.com/1053857
Качество видео: HDRip / 720р
Формат видео: AVI
Видео: XviD, 1551 Kbps, 720 х 304 pixels, 29.970 fps
Аудио: AC3, 192 Kbps, 2 channels, Front: L R, 48.0 KHz, 16 bits
КиноПоиск
MediaInfo
General
Complete name : D:\Pyeong.yang.seong.2011.HDRip.1.45Gb.avi
Format : AVI
Format/Info : Audio Video Interleave
File size : 1.46 GiB
Duration : 1h 58mn
Overall bit rate : 1 755 Kbps
Writing application : VirtualDubMod 1.5.10.3 | www.virtualdub-fr.org || (build 2550/release)
Writing library : VirtualDubMod build 2550/release
Video
ID : 0
Format : MPEG-4 Visual
Format profile : Advanced Simple@L5
Format settings, BVOP : 1
Format settings, QPel : No
Format settings, GMC : No warppoints
Format settings, Matrix : Default (MPEG)
Codec ID : XVID
Codec ID/Hint : XviD
Duration : 1h 58mn
Bit rate : 1 551 Kbps
Width : 720 pixels
Height : 304 pixels
Display aspect ratio : 2.35:1
Frame rate : 29.970 fps
Color space : YUV
Chroma subsampling : 4:2:0
Bit depth : 8 bits
Scan type : Progressive
Compression mode : Lossy
Bits/(Pixel*Frame) : 0.236
Stream size : 1.29 GiB (88%)
Writing library : XviD 73
Audio
ID : 1
Format : AC-3
Format/Info : Audio Coding 3
Mode extension : CM (complete main)
Format settings, Endianness : Big
Codec ID : 2000
Duration : 1h 58mn
Bit rate mode : Constant
Bit rate : 192 Kbps
Channel(s) : 2 channels
Channel positions : Front: L R
Sampling rate : 48.0 KHz
Bit depth : 16 bits
Compression mode : Lossy
Stream size : 163 MiB (11%)
Alignment : Split accross interleaves
Interleave, duration : 33 ms (1.00 video frame)
Interleave, preload duration : 500 ms
Скриншот c названием фильма Скриншоты
Скачать

Скачать торрент! Старая крепость Пхеньян / Battlefield Heroes / Pyeong-yang-seong (Ли Чон Ик / Lee Jun Ik) [2011, Южная Корея, драма, комедия, HDRip] VO (mi24)

Как скачивать? · Что такое торрент? · Рейтинг и ограничения

Сайт не распространяет и не хранит электронные версии произведений, а лишь предоставляет доступ к создаваемому пользователями каталогу ссылок на торрент-файлы, которые содержат только списки хеш-сумм

[Профиль] [ЛС]
Показать сообщения:    
Ответить на тему

Текущее время: Сегодня 12:31

Часовой пояс: GMT + 4



Вы не можете начинать темы
Вы не можете отвечать на сообщения
Вы не можете редактировать свои сообщения
Вы не можете удалять свои сообщения
Вы не можете голосовать в опросах
Вы не можете прикреплять файлы к сообщениям
Вы не можете скачивать файлы