Пятьдесят оттенков серого / Fifty Shades of Grey (Сэм Тейлор-Джонсон / Sam Taylor-Johnson) [2015, США, драма, мелодрама, BDRip 1080p] [Unrated Cut] Dub + Original (Eng) + Sub (Rus, Eng, Ukr)

Ответить на тему
 
Автор Сообщение

user ®

Стаж: 7 лет 7 месяцев

Сообщений: 20008

Пост Пост: #1 от 16-Июн-2015 22:36

[Цитировать]

Пятьдесят оттенков серого / Fifty Shades of Grey / Unrated Cut
Страна: США
Производство: Focus Features, Michael De Luca Productions, Trigger Street Productions
Жанр: драма, мелодрама
Год выпуска: 2015
Продолжительность: 02:08:29
Перевод: Профессиональный (дублированный) Blu-ray CEE
Оригинальная аудиодорожка: английская
Cубтитры: русские (форсированные, полные (2 вида), украинские (форсированные, полные), английские (полные (2 вида), SDH (2 вида), SDH цветные)
Режиссер: Сэм Тейлор-Джонсон / Sam Taylor-Johnson
В ролях: Дакота Джонсон, Джейми Дорнан, Дженнифер Или, Макс Мартини, Люк Граймс, Элоиза Мамфорд, Марша Гей Харден, Рэйчел Скарстен, Рита Ора, Каллум Кит Ренни, Дилан Нил, Эмили Фонда, Энн Мари ДеЛуис, Эндрю Эйрли, Виктор Расук
Описание: В центре сюжета сложные взаимоотношения выпускницы колледжа Анастейши Стил и молодого бизнесмена Кристиана Грея, который убеждает девушку подписать с ним контракт, позволяющий ему фактически контролировать всю ее жизнь. Условия контракта подразумевают также подписание соглашения о неразглашении, в результате чего Грей фактически может делать с Анастейшей все, что ему заблагорассудится.

Релиз: fanatus
Качество видео: BDRip 1080p
Исходник: 50SHADESOFGREY_UPB5_HDCLUB
Контейнер: MKV
Видео: MPEG-4 AVC, 11.4 Mbps , 1920x800 (2.40:1), 23.976 fps, 0.310 bit/pixel
Аудио 1: русский (DTS, 6 ch, 48 kHz, 755 kbps) Dub (Blu-ray CEE)
Аудио 2: английский (DTS, 6 ch, 48 kHz, 1510 kbps) Original
Формат субтитров: softsub (SRT)
Главы: есть
MediaInfo
General
Unique ID : 187857196512406116509048379067703273400 (0x8D53FAE17D2A95EC9BE0788E8158A7B8)
Complete name : D:\Fifty_Shades_of_Grey.2015.Unrated.x264.BDRip.1080p.fanatus.mkv
Format : Matroska
Format version : Version 2
File size : 12.3 GiB
Duration : 2h 8mn
Overall bit rate : 13.7 Mbps
Movie name : Fifty Shades of Grey (2015) - fanatus
Encoded date : UTC 2015-06-08 04:21:22
Writing application : mkvmerge v3.4.0 ('Rapunzel') сборка от May 15 2010 09:38:20
Writing library : libebml v0.8.0 + libmatroska v0.9.0
Attachment : Yes
Video
ID : 1
Format : AVC
Format/Info : Advanced Video Codec
Format profile : High@L4.1
Format settings, CABAC : Yes
Format settings, ReFrames : 5 frames
Codec ID : V_MPEG4/ISO/AVC
Duration : 2h 8mn
Bit rate : 11.4 Mbps
Width : 1 920 pixels
Height : 800 pixels
Display aspect ratio : 2.40:1
Frame rate : 23.976 fps
Color space : YUV
Chroma subsampling : 4:2:0
Bit depth : 8 bits
Scan type : Progressive
Bits/(Pixel*Frame) : 0.310
Stream size : 10.00 GiB (81%)
Title : BDRip(1080p)
Writing library : x264 core 142 r2431+42 c69a006 tMod [8-bit@all X86]
Encoding settings : cabac=1 / ref=5 / deblock=1:-3:-3 / analyse=0x3:0x113 / me=tesa / subme=11 / psy=1 / fade_compensate=0.00 / psy_rd=0.95:0.00 / mixed_ref=1 / me_range=64 / chroma_me=1 / trellis=2 / 8x8dct=1 / cqm=0 / deadzone=21,11 / fast_pskip=0 / chroma_qp_offset=-2 / threads=16 / lookahead_threads=4 / sliced_threads=0 / nr=0 / decimate=0 / interlaced=0 / bluray_compat=0 / constrained_intra=0 / fgo=0 / bframes=10 / b_pyramid=2 / b_adapt=2 / b_bias=0 / direct=3 / weightb=1 / open_gop=0 / weightp=2 / keyint=240 / keyint_min=23 / scenecut=40 / intra_refresh=0 / rc_lookahead=240 / rc=2pass / mbtree=0 / bitrate=11400 / ratetol=1.0 / qcomp=0.65 / qpmin=0:0:0 / qpmax=69:69:69 / qpstep=4 / cplxblur=20.0 / qblur=0.5 / vbv_maxrate=50000 / vbv_bufsize=62500 / nal_hrd=none / filler=0 / ip_ratio=1.40 / pb_ratio=1.30 / aq=4:0.80 / aq-sensitivity=10.00 / aq-factor=1.00:1.00:1.00 / aq2=0 / aq3=0
Language : English
Default : Yes
Forced : No
Audio #1
ID : 2
Format : DTS
Format/Info : Digital Theater Systems
Codec ID : A_DTS
Duration : 2h 8mn
Bit rate mode : Constant
Bit rate : 755 Kbps
Channel(s) : 6 channels
Channel positions : Front: L C R, Side: L R, LFE
Sampling rate : 48.0 KHz
Bit depth : 24 bits
Compression mode : Lossy
Stream size : 693 MiB (6%)
Title : Dub (BD CEE)
Language : Russian
Default : Yes
Forced : No
Audio #2
ID : 3
Format : DTS
Format/Info : Digital Theater Systems
Codec ID : A_DTS
Duration : 2h 8mn
Bit rate mode : Constant
Bit rate : 1 510 Kbps
Channel(s) : 6 channels
Channel positions : Front: L C R, Side: L R, LFE
Sampling rate : 48.0 KHz
Bit depth : 24 bits
Compression mode : Lossy
Stream size : 1.36 GiB (11%)
Title : Original
Language : English
Default : No
Forced : No
Text #1
ID : 4
Format : UTF-8
Codec ID : S_TEXT/UTF8
Codec ID/Info : UTF-8 Plain Text
Title : Forced
Language : Russian
Default : Yes
Forced : Yes
Text #2
ID : 5
Format : UTF-8
Codec ID : S_TEXT/UTF8
Codec ID/Info : UTF-8 Plain Text
Title : Full
Language : Russian
Default : No
Forced : No
Text #3
ID : 6
Format : UTF-8
Codec ID : S_TEXT/UTF8
Codec ID/Info : UTF-8 Plain Text
Title : Full i
Language : Russian
Default : No
Forced : No
Text #4
ID : 7
Format : UTF-8
Codec ID : S_TEXT/UTF8
Codec ID/Info : UTF-8 Plain Text
Title : Full
Language : English
Default : No
Forced : No
Text #5
ID : 8
Format : UTF-8
Codec ID : S_TEXT/UTF8
Codec ID/Info : UTF-8 Plain Text
Title : Full i
Language : English
Default : No
Forced : No
Text #6
ID : 9
Format : UTF-8
Codec ID : S_TEXT/UTF8
Codec ID/Info : UTF-8 Plain Text
Title : SDH
Language : English
Default : No
Forced : No
Text #7
ID : 10
Format : UTF-8
Codec ID : S_TEXT/UTF8
Codec ID/Info : UTF-8 Plain Text
Title : SDH i
Language : English
Default : No
Forced : No
Text #8
ID : 11
Format : UTF-8
Codec ID : S_TEXT/UTF8
Codec ID/Info : UTF-8 Plain Text
Title : SDH Color
Language : English
Default : No
Forced : No
Text #9
ID : 12
Format : UTF-8
Codec ID : S_TEXT/UTF8
Codec ID/Info : UTF-8 Plain Text
Title : Forced
Language : Ukrainian
Default : No
Forced : No
Text #10
ID : 13
Format : UTF-8
Codec ID : S_TEXT/UTF8
Codec ID/Info : UTF-8 Plain Text
Title : Full
Language : Ukrainian
Default : No
Forced : No
Menu
00:00:00.000 : en:Chapter 01
00:10:25.916 : en:Chapter 02
00:14:27.157 : en:Chapter 03
00:20:30.562 : en:Chapter 04
00:24:04.317 : en:Chapter 05
00:29:48.578 : en:Chapter 06
00:35:06.979 : en:Chapter 07
00:40:17.957 : en:Chapter 08
00:46:32.748 : en:Chapter 09
00:50:21.393 : en:Chapter 10
00:57:04.212 : en:Chapter 11
01:02:18.985 : en:Chapter 12
01:06:49.797 : en:Chapter 13
01:14:27.087 : en:Chapter 14
01:22:15.263 : en:Chapter 15
01:31:10.882 : en:Chapter 16
01:38:13.804 : en:Chapter 17
01:46:20.165 : en:Chapter 18
01:53:18.750 : en:Chapter 19
02:01:41.419 : en:Chapter 20
02:08:29.451 : en:Chapter 21
x264 [info]
x264 [info]: 1920x800p 1:1 @ 24000/1001 fps (cfr)
x264 [info]: started at Wed Jun 03 13:26:14 2015
x264 [info]: frame I:1312 Avg QP: 9.82 size:275047
x264 [info]: frame P:41661 Avg QP:11.70 size:114526
x264 [info]: frame B:141875 Avg QP:13.71 size: 41241
x264 [info]: consecutive B-frames: 1.9% 4.1% 15.4% 9.0% 16.5% 47.4% 4.4% 0.3% 0.6% 0.1% 0.3%
x264 [info]: mb I I16..4: 7.6% 76.5% 15.9%
x264 [info]: mb P I16..4: 1.1% 20.6% 1.1% P16..4: 23.8% 30.6% 17.0% 0.0% 0.0% skip: 5.8%
x264 [info]: mb B I16..4: 0.2% 2.2% 0.1% B16..8: 30.4% 26.0% 7.4% direct:11.6% skip:22.1% L0:45.9% L1:38.4% BI:15.8%
x264 [info]: 8x8 transform intra:88.4% inter:37.1%
x264 [info]: direct mvs spatial:98.5% temporal:1.5%
x264 [info]: coded y,uvDC,uvAC intra: 94.5% 96.9% 94.9% inter: 39.9% 45.7% 26.2%
x264 [info]: i16 v,h,dc,p: 37% 6% 5% 51%
x264 [info]: i8 v,h,dc,ddl,ddr,vr,hd,vl,hu: 13% 10% 19% 8% 9% 10% 9% 11% 11%
x264 [info]: i4 v,h,dc,ddl,ddr,vr,hd,vl,hu: 12% 9% 17% 8% 13% 12% 11% 9% 10%
x264 [info]: i8c dc,h,v,p: 65% 12% 13% 10%
x264 [info]: Weighted P-Frames: Y:1.2% UV:0.7%
x264 [info]: ref P L0: 49.5% 5.1% 26.4% 8.0% 9.4% 1.6% 0.0%
x264 [info]: ref B L0: 74.5% 18.4% 5.2% 1.9%
x264 [info]: ref B L1: 92.5% 7.5%
x264 [info]: kb/s:11396.82
x264 [info]: encoded 184848 frames, 0.6245 fps, 11396.82 kb/s, 10474 MB
x264 [info]: ended at Sat Jun 06 23:39:08 2015
x264 [info]: encoding duration 82:12:54
Скриншот c названием фильма Скриншоты Source vs Rip
Скачать

Скачать торрент!

Как скачивать? · Что такое торрент? · Рейтинг и ограничения

Сайт не распространяет и не хранит электронные версии произведений, а лишь предоставляет доступ к создаваемому пользователями каталогу ссылок на торрент-файлы, которые содержат только списки хеш-сумм

[Профиль] [ЛС]
Показать сообщения:    
Ответить на тему

Текущее время: Сегодня 08:06

Часовой пояс: GMT + 4



Вы не можете начинать темы
Вы не можете отвечать на сообщения
Вы не можете редактировать свои сообщения
Вы не можете удалять свои сообщения
Вы не можете голосовать в опросах
Вы не можете прикреплять файлы к сообщениям
Вы не можете скачивать файлы