Тренер / McFarland, USA (Ники Каро / Niki Caro) [2015, США, драма, спорт, BDRip 1080p] MVO (Лицензия) + Sub Rus, Eng + Original Eng

Ответить на тему
 
Автор Сообщение

user ®

Стаж: 7 лет 7 месяцев

Сообщений: 20008

Пост Пост: #1 от 16-Июн-2015 22:36

[Цитировать]

--Тренер / McFarland, USA--«Champions can come from anywhere»- Страна: США
Студия: Mayhem Pictures, Walt Disney Pictures
Жанр: драма, спорт
Год выпуска: 2015
Продолжительность: 02:08:56-Перевод: Профессиональный (многоголосый закадровый) Лицензия
Субтитры: Русские (Blu-ray CEE), английские (SDH), английские (SDH-COLORED)
Оригинальная аудиодорожка: английский-Режиссер: Ники Каро / Niki Caro-В ролях: Кевин Костнер, Рамиро Родригес, Карлос Праттс, Джонни Ортиз, Рафаэль Мартинез, Гектор Дюран, Серджо Авелар, Майкл Агеро, Диана-Мария Рива, Омар Лейва
Описание: История, основанная на реальных событиях. В начале девяностых, в маленьком городке МакФарланд, профессиональный тренер создает команду по легкой атлетике из обычных сорванцов и мелких «хулиганов», и приводит эту команду до вершины спортивного Олимпа. Население МакФарланда — это 90 процентов латиноамериканцы, которые приехали в США под видом переселенцев и беженцев…-| Сэмпл | IMDB | КиноПоиск |
-Качество видео: BDRip 1080p Источник: McFarland.USA.2015.COMPLETE.BLURAY-LAZERS
Формат видео: MKV
Видео: 1920x804 at 23.976 fps, x264@L4.1, ~17.4 Mbps avg
Аудио: Русский (Профессиональный (многоголосый)), AC3, 6ch (L, C, R, Ls, Rs +LFE), 640 кбит/с |Лицензия, Blu-ray EUR|
Аудио 2: Английский (Оригинал), DTS, 6ch (L, C, R, Ls, Rs +LFE), 1536 кбит/с
Формат субтитров: softsub (SRT)
Главы: как на Blu-ray

MediaInfo
Общее
Уникальный идентификатор : 183196236720099449599965569230343791415 (0x89D24FD21D155302AB3151BE494C6337)
Полное имя : E:\MOVIES\McFarland.USA.2015.1080p.BluRay.Rus.Eng.HDCLUB.mkv
Формат : Matroska
Версия формата : Version 2
Размер файла : 17,8 Гбайт
Продолжительность : 2 ч. 9 м.
Общий поток : 19,8 Мбит/сек
Название фильма : McFarland, USA (2015)
Дата кодирования : UTC 2015-06-14 19:52:07
Программа кодирования : mkvmerge v3.4.0 ('Rapunzel') built on May 15 2010 09:38:20
Библиотека кодирования : libebml v0.8.0 + libmatroska v0.9.0
Видео
Идентификатор : 1
Формат : AVC
Формат/Информация : Advanced Video Codec
Профиль формата : High@L4.1
Параметр CABAC формата : Да
Параметр ReFrames формата : 5 кадров
Идентификатор кодека : V_MPEG4/ISO/AVC
Продолжительность : 2 ч. 9 м.
Битрейт : 17,2 Мбит/сек
Ширина : 1920 пикселей
Высота : 804 пикселя
Соотношение сторон : 2,40:1
Режим частоты кадров : Постоянный
Частота кадров : 23,976 кадра/сек
Цветовое пространство : YUV
Субдискретизация насыщенности : 4:2:0
Битовая глубина : 8 бит
Тип развёртки : Прогрессивная
Бит/(Пиксели*Кадры) : 0.465
Размер потока : 15,5 Гбайт (87%)
Заголовок : McFarland, USA (2015)
Библиотека кодирования : x264 core 146 r2538 121396c
Настройки программы : cabac=1 / ref=5 / deblock=1:-3:-3 / analyse=0x3:0x133 / me=umh / subme=10 / psy=1 / psy_rd=1.00:0.00 / mixed_ref=1 / me_range=48 / chroma_me=1 / trellis=2 / 8x8dct=1 / cqm=0 / deadzone=21,11 / fast_pskip=1 / chroma_qp_offset=-2 / threads=16 / lookahead_threads=2 / sliced_threads=0 / nr=0 / decimate=1 / interlaced=0 / bluray_compat=0 / constrained_intra=0 / bframes=8 / b_pyramid=2 / b_adapt=2 / b_bias=0 / direct=3 / weightb=1 / open_gop=0 / weightp=2 / keyint=250 / keyint_min=23 / scenecut=40 / intra_refresh=0 / rc_lookahead=150 / rc=crf / mbtree=0 / crf=17.5 / qcomp=0.70 / qpmin=0 / qpmax=69 / qpstep=4 / vbv_maxrate=50000 / vbv_bufsize=62500 / crf_max=0.0 / nal_hrd=none / filler=0 / ip_ratio=1.20 / pb_ratio=1.20 / aq=3:0.68
Язык : English
Default : Да
Forced : Нет
Аудио #1
Идентификатор : 2
Формат : AC-3
Формат/Информация : Audio Coding 3
Расширение режима : CM (complete main)
Параметр Endianness формата : Big
Идентификатор кодека : A_AC3
Продолжительность : 2 ч. 9 м.
Вид битрейта : Постоянный
Битрейт : 640 Кбит/сек
Каналы : 6 каналов
Расположение каналов : Front: L C R, Side: L R, LFE
Частота : 48,0 КГц
Битовая глубина : 16 бит
Метод сжатия : С потерями
Размер потока : 591 Мбайт (3%)
Заголовок : AC3 5.1 @ 640 kbps - MVO, Blu-ray EUR
Язык : Russian
Default : Да
Forced : Нет
Аудио #2
Идентификатор : 3
Формат : DTS
Формат/Информация : Digital Theater Systems
Режим : 16
Параметр Endianness формата : Big
Идентификатор кодека : A_DTS
Продолжительность : 2 ч. 9 м.
Вид битрейта : Постоянный
Битрейт : 1509 Кбит/сек
Каналы : 6 каналов
Расположение каналов : Front: L C R, Side: L R, LFE
Частота : 48,0 КГц
Битовая глубина : 24 бит
Метод сжатия : С потерями
Размер потока : 1,36 Гбайт (8%)
Заголовок : DTS 5.1 @ 1536 kbps
Язык : English
Default : Нет
Forced : Нет
Текст #1
Идентификатор : 4
Формат : UTF-8
Идентификатор кодека : S_TEXT/UTF8
Идентификатор кодека/Информация : UTF-8 Plain Text
Заголовок : Blu-ray EUR
Язык : Russian
Default : Нет
Forced : Нет
Текст #2
Идентификатор : 5
Формат : UTF-8
Идентификатор кодека : S_TEXT/UTF8
Идентификатор кодека/Информация : UTF-8 Plain Text
Заголовок : SDH
Язык : English
Default : Нет
Forced : Нет
Текст #3
Идентификатор : 6
Формат : UTF-8
Идентификатор кодека : S_TEXT/UTF8
Идентификатор кодека/Информация : UTF-8 Plain Text
Заголовок : SDH-COLORED
Язык : English
Default : Нет
Forced : Нет
Меню
00:00:00.000 : en:00:00:00.000
00:05:48.348 : en:00:05:48.348
00:08:58.538 : en:00:08:58.538
00:13:24.846 : en:00:13:24.846
00:15:26.676 : en:00:15:26.676
00:19:21.369 : en:00:19:21.369
00:22:19.296 : en:00:22:19.296
00:25:50.758 : en:00:25:50.758
00:34:41.454 : en:00:34:41.454
00:41:11.177 : en:00:41:11.177
00:43:13.841 : en:00:43:13.841
00:48:04.924 : en:00:48:04.924
00:55:29.952 : en:00:55:29.952
00:57:24.316 : en:00:57:24.316
01:01:23.096 : en:01:01:23.096
01:06:03.459 : en:01:06:03.459
01:10:50.997 : en:01:10:50.997
01:14:02.855 : en:01:14:02.855
01:18:48.557 : en:01:18:48.557
01:28:10.535 : en:01:28:10.535
01:37:34.849 : en:01:37:34.849
01:40:24.644 : en:01:40:24.644
01:45:38.082 : en:01:45:38.082
01:53:12.744 : en:01:53:12.744
02:02:03.775 : en:02:02:03.775
02:04:34.509 : en:02:04:34.509
Скриншоты Скриншоты сравнения: Source / Encode
Скачать

Скачать торрент!

Как скачивать? · Что такое торрент? · Рейтинг и ограничения

Сайт не распространяет и не хранит электронные версии произведений, а лишь предоставляет доступ к создаваемому пользователями каталогу ссылок на торрент-файлы, которые содержат только списки хеш-сумм

[Профиль] [ЛС]
Показать сообщения:    
Ответить на тему

Текущее время: Сегодня 20:18

Часовой пояс: GMT + 4



Вы не можете начинать темы
Вы не можете отвечать на сообщения
Вы не можете редактировать свои сообщения
Вы не можете удалять свои сообщения
Вы не можете голосовать в опросах
Вы не можете прикреплять файлы к сообщениям
Вы не можете скачивать файлы