Последствия: Когда Земля перестанет вращаться / Aftermath: When the Earth stops spinning (National Geographic Television) [2010 г., документальный, SATRip]

Ответить на тему
 
Автор Сообщение

user ®

Стаж: 9 лет 8 месяцев

Сообщений: 18988

Пост Пост: #1 от 01-Ноя-2010 23:46

[Цитировать]

Последствия: Когда Земля перестанет вращаться / Aftermath: When the Earth stops spinning
Год выпуска: 2010
Страна: США
Жанр: документальный
Продолжительность: 00:46:54
Перевод: Профессиональный (одноголосый)
Русские субтитры: нет
Режиссер: National Geographic Television
Описание: О фильме:
Перед вами новый мир . Мир в котором Земля перестала вращаться . В этом мире каждая ночь длится пол года и пол года длится день . Жестокое солнце испепеляет планету . В этом мире часть городов поглотило море , а другую часть люди покинули , потому что там стало нечем дышать . Это страшный мир и всем нам придется выживать в новых жестоких условиях .

Данные MediaInfo

Video
ID : 0
Format : MPEG-4 Visual
Format profile : Advanced Simple@L5
Format settings, BVOP : Yes
Format settings, QPel : No
Format settings, GMC : No warppoints
Format settings, Matrix : Default (MPEG)
Muxing mode : Packed bitstream
Codec ID : XVID
Codec ID/Hint : XviD
Duration : 46mn 54s
Bit rate : 1 506 Kbps
Width : 640 pixels
Height : 368 pixels
Display aspect ratio : 16:9
Frame rate : 25.000 fps
Resolution : 8 bits
Colorimetry : 4:2:0
Scan type : Progressive
Bits/(Pixel*Frame) : 0.256
Stream size : 505 MiB (92%)
Writing library : XviD 1.2.1 (UTC 2008-12-04)
Audio
ID : 1
Format : MPEG Audio
Format version : Version 1
Format profile : Layer 3
Codec ID : 55
Codec ID/Hint : MP3
Duration : 46mn 54s
Bit rate mode : Constant
Bit rate : 128 Kbps
Channel(s) : 2 channels
Sampling rate : 48.0 KHz
Stream size : 42.9 MiB (8%)
Alignment : Aligned on interleaves
Interleave, duration : 40 ms (1.00 video frame)
Interleave, preload duration : 504 ms
Качество: SATRip
Формат: AVI
Видео кодек: XviD
Аудио кодек: MP3
Видео: 640x368 (1.74:1), 25 fps, XviD MPEG-4 ~1505 kbps avg, 0.26 bit/pixel
Аудио: 48 kHz, MPEG Layer 3, 2 ch, ~128.00 kbps avg

Скриншоты

Скачать

Скачать торрент!

Как скачивать? · Что такое торрент? · Рейтинг и ограничения

Сайт не распространяет и не хранит электронные версии произведений, а лишь предоставляет доступ к создаваемому пользователями каталогу ссылок на торрент-файлы, которые содержат только списки хеш-сумм

загрузка...
[Профиль] [ЛС]

dslava

Пол:

Стаж: 7 лет 5 месяцев

Сообщений: 1

Откуда: Россия

Пост Пост: #2 от 15-Фев-2012 01:56 (спустя 1 год 3 месяца)

[Цитировать]

отлично то что надо
[Профиль] [ЛС]
Показать сообщения:    
Ответить на тему

Текущее время: Сегодня 20:06

Часовой пояс: GMT + 4



Вы не можете начинать темы
Вы не можете отвечать на сообщения
Вы не можете редактировать свои сообщения
Вы не можете удалять свои сообщения
Вы не можете голосовать в опросах
Вы не можете прикреплять файлы к сообщениям
Вы не можете скачивать файлы