Наемный убийца / Bounty Killer (Генри Сэйн / Henry Saine) [2013, США, фантастика, боевик, триллер, BDRip 1080p] MVO + Original Eng + Sub Eng

Ответить на тему
 
Автор Сообщение

user ®

Стаж: 7 лет 7 месяцев

Сообщений: 20008

Пост Пост: #1 от 16-Июн-2015 22:36

[Цитировать]

Наемный убийцаBounty Killer- Страна: США
Жанр: фантастика, боевик, триллер
слова
Год выпуска: 2013
Продолжительность: 01:32:40-Перевод: Профессиональный (многоголосый, закадровый)
Субтитры: английские
Режиссер: Генри Сэйн / Henry Saine
В ролях: Мэттью Мэрсден, Кристанна Локен, Кристиан Питре, Барак Хардли, Абрахам Бенруби, Гэри Бьюзи, Беверли Д’Анджело, Ив, Кевин МакНэлли, Алекса Вега-Описание: Спустя двадцать лет после начала Корпоративной Мировой войны, некогда цветущая и плодородная планета превратилась в выжженную пустыню, усеянную полуразрушенными останками людских поселений. Среди непрекращающейся тьмы и разрухи на свет появился Совет Девяти Роз, призванный уничтожить всё, что хоть отдалённо напоминает о корпорациях. Так началась эпоха наёмных убийц, охотящихся за «белыми воротничками».-
MPAA: R - Лицам до 17 лет обязательно присутствие взрослого-Качество: BDRip (SbR)
Контейнер: MKV
Видео: 1920x800, 14671 kbps, 23,976 fps
Аудио №1: русский / AC3 / 2.0 / 48 kHz / 192 kbps |Многоголосый|
Аудио №2: английский / DTS / 5.1 / 48 kHz / 1509 kbps
Субтитры: английские-Скриншоты Media Info
General
Unique ID : 251319146427630299995907989602988460694 (0xBD124E959AB749D882053239FE6C0A96)
Complete name : D:\Bounty.Killer.2013.1080p.BluRay.Rus.Eng-SbR.mkv
Format : Matroska
Format version : Version 4 / Version 2
File size : 10.6 GiB
Duration : 1h 32mn
Overall bit rate : 16.4 Mbps
Movie name : Bounty Killer (2013) - Release by SbR
Encoded date : UTC 2015-06-14 09:53:19
Writing application : mkvmerge v7.9.0 ('Birds') 64bit
Writing library : libebml v1.3.1 + libmatroska v1.4.2
Attachment : Yes / Yes
Video
ID : 1
Format : AVC
Format/Info : Advanced Video Codec
Format profile : High@L4.1
Format settings, CABAC : Yes
Format settings, ReFrames : 5 frames
Codec ID : V_MPEG4/ISO/AVC
Duration : 1h 32mn
Bit rate : 14.3 Mbps
Width : 1 920 pixels
Height : 800 pixels
Display aspect ratio : 2.40:1
Frame rate : 23.976 fps
Color space : YUV
Chroma subsampling : 4:2:0
Bit depth : 8 bits
Scan type : Progressive
Bits/(Pixel*Frame) : 0.390
Stream size : 9.29 GiB (88%)
Writing library : x264 core 146 r2538kMod 121396c
Encoding settings : cabac=1 / ref=5 / deblock=1:-2:-2 / analyse=0x3:0x133 / me=umh / subme=11 / psy=1 / fade_compensate=0.00 / psy_rd=1.00:0.00 / mixed_ref=1 / me_range=32 / chroma_me=1 / trellis=2 / 8x8dct=1 / cqm=0 / deadzone=21,11 / fast_pskip=1 / chroma_qp_offset=-2 / threads=12 / lookahead_threads=2 / sliced_threads=0 / nr=0 / decimate=1 / interlaced=0 / bluray_compat=0 / constrained_intra=0 / fgo=0 / bframes=8 / b_pyramid=2 / b_adapt=2 / b_bias=0 / direct=1 / weightb=1 / open_gop=0 / weightp=2 / keyint=250 / keyint_min=23 / scenecut=40 / intra_refresh=0 / rc_lookahead=60 / rc=crf / mbtree=0 / crf=15.0000 / qcomp=0.60 / qpmin=0 / qpmax=69 / qpstep=4 / vbv_maxrate=62500 / vbv_bufsize=78125 / crf_max=0.0 / nal_hrd=none / filler=0 / ip_ratio=1.40 / pb_ratio=1.30 / aq=1:0.80
Language : English
Default : Yes
Forced : No
Color primaries : BT.709-5, BT.1361, IEC 61966-2-4, SMPTE RP177
Transfer characteristics : BT.709-5, BT.1361
Matrix coefficients : BT.709-5, BT.1361, IEC 61966-2-4 709, SMPTE RP177
Audio #1
ID : 2
Format : AC-3
Format/Info : Audio Coding 3
Mode extension : CM (complete main)
Codec ID : A_AC3
Duration : 1h 32mn
Bit rate mode : Constant
Bit rate : 192 Kbps
Channel(s) : 2 channels
Channel positions : Front: L R
Sampling rate : 48.0 KHz
Bit depth : 16 bits
Compression mode : Lossy
Stream size : 127 MiB (1%)
Title : MVO
Language : Russian
Default : Yes
Forced : No
Audio #2
ID : 3
Format : DTS
Format/Info : Digital Theater Systems
Codec ID : A_DTS
Duration : 1h 32mn
Bit rate mode : Constant
Bit rate : 1 510 Kbps
Channel(s) : 6 channels
Channel positions : Front: L C R, Side: L R, LFE
Sampling rate : 48.0 KHz
Bit depth : 24 bits
Compression mode : Lossy
Stream size : 1 001 MiB (9%)
Language : English
Default : No
Forced : No
Text
ID : 4
Format : UTF-8
Codec ID : S_TEXT/UTF8
Codec ID/Info : UTF-8 Plain Text
Language : English
Default : No
Forced : No
Menu
00:00:00.000 : en:Chapter 1
00:07:40.334 : en:Chapter 2
00:16:59.935 : en:Chapter 3
00:25:05.504 : en:Chapter 4
00:32:23.942 : en:Chapter 5
00:39:07.178 : en:Chapter 6
00:49:42.729 : en:Chapter 7
00:56:13.787 : en:Chapter 8
01:03:16.125 : en:Chapter 9
01:13:51.260 : en:Chapter 10
01:20:00.921 : en:Chapter 11
01:26:49.120 : en:Chapter 12
xlog
avs [info]: 1920x800p 1:1 @ 24000/1001 fps (cfr)
x264 [info]: using SAR=1/1
x264 [info]: using cpu capabilities: MMX2 SSE2Fast SSSE3 SSE4.2 AVX
x264 [info]: profile High, level 4.1
x264 [info]: frame I:1285 Avg QP:12.57 size:220133
x264 [info]: frame P:35362 Avg QP:13.73 size:128517
x264 [info]: frame B:96661 Avg QP:16.04 size: 55547
x264 [info]: consecutive B-frames: 5.8% 5.9% 16.7% 12.6% 7.7% 48.6% 1.5% 0.4% 0.7%
x264 [info]: mb I I16..4: 18.6% 43.9% 37.6%
x264 [info]: mb P I16..4: 4.5% 31.4% 5.7% P16..4: 19.3% 23.2% 7.9% 2.4% 0.2% skip: 5.4%
x264 [info]: mb B I16..4: 0.8% 5.2% 0.7% B16..8: 37.7% 26.6% 5.0% direct: 8.6% skip:15.5% L0:44.9% L1:39.7% BI:15.4%
x264 [info]: 8x8 transform intra:74.3% inter:41.5%
x264 [info]: coded y,uvDC,uvAC intra: 90.1% 91.1% 85.7% inter: 45.7% 46.5% 22.1%
x264 [info]: i16 v,h,dc,p: 24% 11% 23% 42%
x264 [info]: i8 v,h,dc,ddl,ddr,vr,hd,vl,hu: 10% 9% 13% 9% 11% 11% 11% 12% 13%
x264 [info]: i4 v,h,dc,ddl,ddr,vr,hd,vl,hu: 15% 12% 20% 6% 10% 9% 9% 8% 10%
x264 [info]: i8c dc,h,v,p: 53% 19% 14% 15%
x264 [info]: Weighted P-Frames: Y:5.6% UV:4.7%
x264 [info]: ref P L0: 56.8% 10.5% 18.2% 7.7% 5.5% 1.3% 0.1%
x264 [info]: ref B L0: 85.0% 10.5% 3.6% 1.0%
x264 [info]: ref B L1: 95.2% 4.8%
x264 [info]: kb/s:14671.37
encoded 133308 frames, 4.26 fps, 14671.37 kb/s, duration 8:41:45.22
Сэмпл Дополнительно
Спасибо flaSI-I за исходник.
Скачать

Скачать торрент!

Как скачивать? · Что такое торрент? · Рейтинг и ограничения

Сайт не распространяет и не хранит электронные версии произведений, а лишь предоставляет доступ к создаваемому пользователями каталогу ссылок на торрент-файлы, которые содержат только списки хеш-сумм

[Профиль] [ЛС]
Показать сообщения:    
Ответить на тему

Текущее время: Сегодня 19:26

Часовой пояс: GMT + 4



Вы не можете начинать темы
Вы не можете отвечать на сообщения
Вы не можете редактировать свои сообщения
Вы не можете удалять свои сообщения
Вы не можете голосовать в опросах
Вы не можете прикреплять файлы к сообщениям
Вы не можете скачивать файлы