Состояние сердца / Все беды от сердца / Heart Condition (Джеймс Д. Пэрриотт / James D. Parriott) [1990, США, комедия, WEB-DL 720p] MVO + AVO (А. Михалёв) + Ukr (DVO НТН) + Sub Eng + Original Eng

Ответить на тему
 
Автор Сообщение

user ®

Стаж: 7 лет 7 месяцев

Сообщений: 20008

Пост Пост: #1 от 16-Июн-2015 22:36

[Цитировать]

Состояние сердца / Все беды от сердца / Heart Condition
Страна: США
Студия: New Line Cinema
Жанр: комедия
Год выпуска: 1990
Продолжительность: 01:40:09
Перевод: Профессиональный (многоголосый закадровый)
Перевод 2: Авторский (одноголосый закадровый) А. Михалёв
Cубтитры: русские(только на непереведённые места), английские
Оригинальная аудиодорожка: английский
Режиссер: Джеймс Д. Пэрриотт / James D. Parriott
В ролях: Боб Хоскинс, Дензел Вашингтон, Хлоя Уэбб, Роджер Э. Мосли, Джанет Дюбуа, Алан Рачинс, Рэй Бэйкер, Джеффри Мик, Ева ЛаРю Каллахан, Фрэнк Р. Роач
Описание: Лос-анджелесский полицейский Джек Муни — расист по убеждению. Можете представить его недовольство, когда он, придя в себя после трансплантационной операции узнает, что ему пересажено сердце негра. И не простого негра, а личного врага Джека — погибшего накануне адвоката, связанного с преступным миром. И можете представить бешенство Джека, когда негр начинает «доставать» его даже после своей смерти, являясь к полицейскому в качестве призрака.
Доп. информация: Многоголоска с ТВ содержит места без перевода(00:04:41-00:07:58, 00:20:56-00:21:57, 00:23:42-00:24:35, 00:34:33-00:35:36, 01:07:50-01:09:04). Всего примерно около 8 минут на ТВ вырезали - на эти места сделаны субтитры.
Sample
Тип релиза: WEB-DL 720p
Контейнер: MKV
Видео: MPEG4 AVC Video, H264, 16:9, 1280x718, 23.976 fps, 4050 kbps
Аудио: Russian (AC3, 2 ch, 192 kbps, 16 bits, 48.0 KHz) - MVO
Аудио 2: Russian (AC3, 6 ch, 448 kbps, 16 bits, 48.0 KHz) - А. Михалёв
Аудио 3: Ukrainian (AC3, 6 ch, 448 kbps, 16 bits, 48.0 KHz) - DVO НТН
Аудио 4: English (AC3, 6 ch, 448 kbps, 16 bits, 48.0 KHz) - оригинал
Формат субтитров: softsub (SRT)

MediaInfo
General
Unique ID : 183247052127253821077998478242250595918 (0x89DC1936B91668A4BB6A920256819E4E)
Complete name : L:\Heart Condition 1989 WEB-DL 720p.mkv
Format : Matroska
Format version : Version 4 / Version 2
File size : 3.99 GiB
Duration : 1h 40mn
Overall bit rate : 5 699 Kbps
Encoded date : UTC 2015-06-15 12:54:55
Writing application : mkvmerge v6.1.0 ('Old Devil') built on Mar 2 2013 14:32:37
Writing library : libebml v1.3.0 + libmatroska v1.4.0
Video
ID : 1
Format : AVC
Format/Info : Advanced Video Codec
Format profile : High@L3.1
Format settings, CABAC : No
Format settings, ReFrames : 2 frames
Codec ID : V_MPEG4/ISO/AVC
Duration : 1h 40mn
Bit rate : 4 050 Kbps
Width : 1 280 pixels
Height : 718 pixels
Display aspect ratio : 16:9
Frame rate mode : Constant
Frame rate : 23.976 fps
Color space : YUV
Chroma subsampling : 4:2:0
Bit depth : 8 bits
Scan type : Progressive
Bits/(Pixel*Frame) : 0.184
Stream size : 2.83 GiB (71%)
Language : English
Default : Yes
Forced : No
Color primaries : BT.709
Transfer characteristics : BT.709
Matrix coefficients : BT.709
Audio #1
ID : 2
Format : AC-3
Format/Info : Audio Coding 3
Mode extension : CM (complete main)
Format settings, Endianness : Big
Codec ID : A_AC3
Duration : 1h 40mn
Bit rate mode : Constant
Bit rate : 192 Kbps
Channel count : 2 channels
Channel positions : Front: L R
Sampling rate : 48.0 KHz
Bit depth : 16 bits
Compression mode : Lossy
Stream size : 138 MiB (3%)
Title : MVO
Language : Russian
Default : Yes
Forced : Yes
Audio #2
ID : 3
Format : AC-3
Format/Info : Audio Coding 3
Mode extension : CM (complete main)
Format settings, Endianness : Big
Codec ID : A_AC3
Duration : 1h 40mn
Bit rate mode : Constant
Bit rate : 448 Kbps
Channel count : 6 channels
Channel positions : Front: L C R, Side: L R, LFE
Sampling rate : 48.0 KHz
Bit depth : 16 bits
Compression mode : Lossy
Stream size : 321 MiB (8%)
Title : А. Михалев
Language : Russian
Default : No
Forced : No
Audio #3
ID : 4
Format : AC-3
Format/Info : Audio Coding 3
Mode extension : CM (complete main)
Format settings, Endianness : Big
Codec ID : A_AC3
Duration : 1h 40mn
Bit rate mode : Constant
Bit rate : 448 Kbps
Channel count : 6 channels
Channel positions : Front: L C R, Side: L R, LFE
Sampling rate : 48.0 KHz
Bit depth : 16 bits
Compression mode : Lossy
Stream size : 321 MiB (8%)
Title : НТН
Language : Ukrainian
Default : No
Forced : No
Audio #4
ID : 5
Format : AC-3
Format/Info : Audio Coding 3
Mode extension : CM (complete main)
Format settings, Endianness : Big
Codec ID : A_AC3
Duration : 1h 40mn
Bit rate mode : Constant
Bit rate : 448 Kbps
Channel count : 6 channels
Channel positions : Front: L C R, Side: L R, LFE
Sampling rate : 48.0 KHz
Bit depth : 16 bits
Compression mode : Lossy
Stream size : 321 MiB (8%)
Language : English
Default : No
Forced : No
Text #1
ID : 6
Format : UTF-8
Codec ID : S_TEXT/UTF8
Codec ID/Info : UTF-8 Plain Text
Title : форсированные
Language : Russian
Default : Yes
Forced : Yes
Text #2
ID : 7
Format : UTF-8
Codec ID : S_TEXT/UTF8
Codec ID/Info : UTF-8 Plain Text
Language : English
Default : No
Forced : No
Menu
00:00:00.000 : en:1.
00:10:00.000 : en:2.
00:20:00.000 : en:3.
00:30:00.000 : en:4.
00:40:00.000 : en:5.
00:50:00.000 : en:6.
01:00:00.000 : en:7.
01:10:00.000 : en:8.
01:20:00.000 : en:9.
01:30:00.000 : en:10.
Скриншоты
Скачать

Скачать торрент!

Как скачивать? · Что такое торрент? · Рейтинг и ограничения

Сайт не распространяет и не хранит электронные версии произведений, а лишь предоставляет доступ к создаваемому пользователями каталогу ссылок на торрент-файлы, которые содержат только списки хеш-сумм

[Профиль] [ЛС]
Показать сообщения:    
Ответить на тему

Текущее время: Сегодня 02:16

Часовой пояс: GMT + 4



Вы не можете начинать темы
Вы не можете отвечать на сообщения
Вы не можете редактировать свои сообщения
Вы не можете удалять свои сообщения
Вы не можете голосовать в опросах
Вы не можете прикреплять файлы к сообщениям
Вы не можете скачивать файлы