Ракета Гибралтар / Ракета на Гибралтар / Rocket Gibraltar (Дэниел Питри / Daniel Petrie) [1988, США, драма, семейный, WEB-DL 720p] VO (Я. Литвинов) + Sub Rus, Eng + Original Eng

Ответить на тему
 
Автор Сообщение

user ®

Стаж: 7 лет 7 месяцев

Сообщений: 20008

Пост Пост: #1 от 16-Июн-2015 22:36

[Цитировать]

Ракета Гибралтар / Rocket Gibraltar
Страна: США
Студия: Columbia Pictures Corporation
Жанр: драма, семейный
Год выпуска: 1988
Продолжительность: 01:38:52
Перевод: Одноголосый закадровый Ярослав Литвинов
Cубтитры: русские (quest42good), английские
Оригинальная аудиодорожка: английский
Режиссер: Дэниел Питри / Daniel Petrie
В ролях: Берт Ланкастер, Сьюзи Эймис, Патриция Кларксон, Фрэнсис Конрой, Шинед Кьюсак, Маколей Калкин, Джон Гловер, Билл Пуллман, Кевин Спейси, Джон Белл, Никки Бронсон, Анджела Геталс
Описание: Ливаю Роквеллу - 77. Вся его жизнь – в воспоминаниях о прошедших днях и любимой жене, к которым он снова и снова возвращается, слушая проникновенные песни Билли Холидей. Когда отметить день рождения главы семейства собираются все его дети и внуки, выясняется, что несмотря на неизменную любовь к отцу и друг к другу, у каждого из них свои проблемы, взгляды на жизнь и сложные взаимоотношения. С внуками, тем не менее, у Ливая складывается полное взаимопонимание, и именно им он расскажет о своем последнем желании.

Sample
Тип релиза: WEB-DL 720p
Контейнер: MKV
Видео: MPEG4 AVC Video, H264, 16:9, 1280x720, 23.976 fps, 3990 kbps
Аудио: Russian (AC3, 2 ch, 192 kbps, 16 bits, 48.0 KHz) - VO
Аудио 2: English (AC3, 2 ch, 192 kbps, 16 bits, 48.0 KHz) - оригинал
Формат субтитров: softsub (SRT)

MediaInfo
General
Unique ID : 228172314329283094232310216839087118969 (0xABA863A6D9CA5D26B5417D4B6581DA79)
Complete name : L:\Rocket Gibraltar 1988 WEB-DL 720p.mkv
Format : Matroska
Format version : Version 4 / Version 2
File size : 3.08 GiB
Duration : 1h 38mn
Overall bit rate : 4 462 Kbps
Encoded date : UTC 2015-06-15 18:35:14
Writing application : mkvmerge v6.1.0 ('Old Devil') built on Mar 2 2013 14:32:37
Writing library : libebml v1.3.0 + libmatroska v1.4.0
Video
ID : 1
Format : AVC
Format/Info : Advanced Video Codec
Format profile : High@L3.1
Format settings, CABAC : No
Format settings, ReFrames : 2 frames
Codec ID : V_MPEG4/ISO/AVC
Duration : 1h 38mn
Bit rate : 3 990 Kbps
Width : 1 280 pixels
Height : 720 pixels
Display aspect ratio : 16:9
Frame rate mode : Constant
Frame rate : 23.976 fps
Color space : YUV
Chroma subsampling : 4:2:0
Bit depth : 8 bits
Scan type : Progressive
Bits/(Pixel*Frame) : 0.181
Stream size : 2.76 GiB (89%)
Language : English
Default : Yes
Forced : No
Color primaries : BT.709
Transfer characteristics : BT.709
Matrix coefficients : BT.709
Audio #1
ID : 2
Format : AC-3
Format/Info : Audio Coding 3
Mode extension : CM (complete main)
Format settings, Endianness : Big
Codec ID : A_AC3
Duration : 1h 38mn
Bit rate mode : Constant
Bit rate : 192 Kbps
Channel count : 2 channels
Channel positions : Front: L R
Sampling rate : 48.0 KHz
Bit depth : 16 bits
Compression mode : Lossy
Stream size : 136 MiB (4%)
Language : Russian
Default : Yes
Forced : No
Audio #2
ID : 3
Format : AC-3
Format/Info : Audio Coding 3
Mode extension : CM (complete main)
Format settings, Endianness : Big
Codec ID : A_AC3
Duration : 1h 38mn
Bit rate mode : Constant
Bit rate : 192 Kbps
Channel count : 2 channels
Channel positions : Front: L R
Sampling rate : 48.0 KHz
Bit depth : 16 bits
Compression mode : Lossy
Stream size : 136 MiB (4%)
Language : English
Default : No
Forced : No
Text #1
ID : 4
Format : UTF-8
Codec ID : S_TEXT/UTF8
Codec ID/Info : UTF-8 Plain Text
Language : Russian
Default : No
Forced : No
Text #2
ID : 5
Format : UTF-8
Codec ID : S_TEXT/UTF8
Codec ID/Info : UTF-8 Plain Text
Language : English
Default : No
Forced : No
Menu
00:00:00.000 : en:START
00:03:08.000 : en:Levi's Birthday Gathering
00:05:48.000 : en:Blue
00:15:00.000 : en:The Big Deal
00:16:41.000 : en:You better Go Now
00:19:59.000 : en:Regular People
00:23:25.000 : en:A proper Funeral
00:30:12.000 : en:A Dog In The House
00:31:31.000 : en:The Rocket Gibraltar
00:36:12.000 : en:Sexpot
00:41:01.000 : en:Lunch with Levi
00:43:04.000 : en:The sail
00:44:10.000 : en:Heart attack
00:48:55.000 : en:Docter Bonacker
00:54:16.000 : en:Levi'sstandup act
00:57:43.000 : en:I Can't Explain
00:58:58.000 : en:The voodoo curve returns
01:04:34.000 : en:I miss Mom.
01:06:31.000 : en:The family plot
01:07:52.000 : en:Off to the game
01:10:33.000 : en:Jackson Pollock
01:13:37.000 : en:Fred Astaire movies
01:20:01.000 : en:Is he??
01:22:47.000 : en:Moving the body
01:24:10.000 : en:The getaway car
01:26:08.000 : en:The truth about Levi's heart
01:29:02.000 : en:" No worms, Grandpa."
01:31:37.000 : en:Viking's Funeral
Скриншоты
Скачать

Скачать торрент!

Как скачивать? · Что такое торрент? · Рейтинг и ограничения

Сайт не распространяет и не хранит электронные версии произведений, а лишь предоставляет доступ к создаваемому пользователями каталогу ссылок на торрент-файлы, которые содержат только списки хеш-сумм

[Профиль] [ЛС]
Показать сообщения:    
Ответить на тему

Текущее время: Сегодня 17:28

Часовой пояс: GMT + 4



Вы не можете начинать темы
Вы не можете отвечать на сообщения
Вы не можете редактировать свои сообщения
Вы не можете удалять свои сообщения
Вы не можете голосовать в опросах
Вы не можете прикреплять файлы к сообщениям
Вы не можете скачивать файлы