Странная магия / Странные чары / Strange Magic (Гари Ридстром / Gary Rydstrom) [2015, мультфильм, мюзикл, фэнтези, семейный, WEB-DLRip] DUB

Ответить на тему
 
Автор Сообщение

user ®

Стаж: 13 лет

Сообщений: 15041

Пост Пост: #1 от 16-Июн-2015 00:57

[Цитировать]

Странные чары
Strange Magic
Страна: США
Жанр: мультфильм, мюзикл, фэнтези, семейный
Продолжительность: 01:39:38
Год выпуска: 2015-Перевод: Профессиональный (дублированный)
Русские субтитры: нет
Режиссёр: Гари Ридстром / Gary Rydstrom-Роли озвучивали: Алан Камминг, Эван Рэйчел Вуд, Элайджа Келли, Мередит Энн Булл, Сэм Палладио, Кристин Ченоуэт, Майя Рудольф, Петер Стормаре, Бренда Чепмен-Описание: Музыкальная сказка о гоблинах, эльфах, феях и бесах, рассказанная под мелодии популярных песен последних шести десятилетий.
Гоблины, эльфы, феи и монстры стремятся завладеть чудодейственным снадобьем. Мультфильм создан по мотивам произведения Шекспира "Сон в летнюю ночь".-Релиз: | | -Качество: [url=http://***/forum/viewtopic.php?t=5008678]WEB-DLRip[/url]
Формат: AVI
Видео: 688x288 (2.39:1), 23,976 fps, XviD 66 ~ 914 kbps avg, 0.19 bit/pixel
Аудио: 48.0 kHz, MPEG Layer 3, 2/0 (L,R) ch, ~128 kbps
Субтитры: отсутствуют

MI

General
Complete name : D:\Strange.Magic.2015.WEB-DLRip.748.avi
Format : AVI
Format/Info : Audio Video Interleave
File size : 749 MiB
Duration : 1h 39mn
Overall bit rate : 1 051 Kbps
Writing application : VirtualDubMod 1.5.10.2 (build 2540/release)
Writing library : VirtualDubMod build 2540/release
Video
ID : 0
Format : MPEG-4 Visual
Format profile : Advanced Simple@L5
Format settings, BVOP : 1
Format settings, QPel : No
Format settings, GMC : No warppoints
Format settings, Matrix : Custom
Codec ID : XVID
Codec ID/Hint : XviD
Duration : 1h 39mn
Bit rate : 914 Kbps
Width : 688 pixels
Height : 288 pixels
Display aspect ratio : 2.40:1
Frame rate : 23.976 fps
Color space : YUV
Chroma subsampling : 4:2:0
Bit depth : 8 bits
Scan type : Progressive
Compression mode : Lossy
Bits/(Pixel*Frame) : 0.192
Stream size : 651 MiB (87%)
Writing library : XviD 66
Audio
ID : 1
Format : MPEG Audio
Format version : Version 1
Format profile : Layer 3
Codec ID : 55
Codec ID/Hint : MP3
Duration : 1h 39mn
Bit rate mode : Constant
Bit rate : 128 Kbps
Channel(s) : 2 channels
Sampling rate : 48.0 KHz
Compression mode : Lossy
Stream size : 91.0 MiB (12%)
Alignment : Aligned on interleaves
Interleave, duration : 42 ms (1.00 video frame)
Interleave, preload duratio : 504 ms
Скриншоты
Скачать

Скачать торрент! Странная магия / Странные чары / Strange Magic (Гари Ридстром / Gary Rydstrom) [2015, мультфильм, мюзикл, фэнтези, семейный, WEB-DLRip] DUB

Как скачивать? · Что такое торрент? · Рейтинг и ограничения

Сайт не распространяет и не хранит электронные версии произведений, а лишь предоставляет доступ к создаваемому пользователями каталогу ссылок на торрент-файлы, которые содержат только списки хеш-сумм

[Профиль] [ЛС]
Показать сообщения:    
Ответить на тему

Текущее время: Сегодня 04:01

Часовой пояс: GMT + 4



Вы не можете начинать темы
Вы не можете отвечать на сообщения
Вы не можете редактировать свои сообщения
Вы не можете удалять свои сообщения
Вы не можете голосовать в опросах
Вы не можете прикреплять файлы к сообщениям
Вы не можете скачивать файлы