Исцеление / Снадобье / Cure / Kyua (Киёси Куросава / Kiyoshi Kurosawa) [1997, Япония, экзистенциальные ужасы, драма, триллер, гипноз, BDRemux 1080i] VO (liosaa) + VO (Владимир Штейн) + Sub Rus, Eng + Original Jap

Ответить на тему
 
Автор Сообщение

user ®

Стаж: 7 лет 7 месяцев

Сообщений: 20008

Пост Пост: #1 от 16-Июн-2015 00:57

[Цитировать]

Исцеление / Снадобье / Cure / Kyua
Страна: Япония
Жанр: экзистенциальные ужасы, драма, триллер, гипноз
Год выпуска: 1997
Продолжительность: 01:51:18
Перевод 1: Одноголосый закадровый (liosaa)
Перевод 2: Одноголосый закадровый (Владимир Штейн)
Cубтитры: русские (liosaa), английские
Оригинальная аудиодорожка: японский
Режиссер: Киёси Куросава / Kiyoshi Kurosawa
В ролях: Кодзи Якусё, Масато Хагивара, Цуёши Удзики, Анна Накагава, Ёрико Доугути, Юкидзиро Хотару, Денден, Рен Осуги, Масахиро Тода, Мисаё Харуки
Описание: Инспектор Такабе совсем забегался... Дома больная жена -- участились провалы в памяти, и он для неё вроде няньки... На работе сущий ад -- цепь беспричинных убийств, все убийцы в миру люди тихие, ведут себя как заколдованные , во всём каются, а зачем убили, не знают... Да ещё этот странный тип на допросах нервы треплет -- похоже на полную амнезию (даже имя своё забыл), но какой-то он шибко наглый, будто страхов земных и не ведал вовсе...
Короче, надо срочно найти снадобье ото всех напастей, исцелить жену -- и забыть наконец, как страшный сон, всю эту чертовщину... А вот здесь, как в сказке про Дракона, либо-либо -- либо он тебя победит и съест, либо победишь ты, но драконово семя разъест изнутри твою душу... Третьего не дано!...
И в урочный час, в нехорошем месте, задребезжит из патефона глухое пророчество: "...Миг исцеления настал!.. Клинок, как снадобье в ладонях..."
Культовый фильм про гипноз, как вход в незримые пределы зла, и центральный в творчестве К. Куросавы, главного кино-мистика планеты... Здесь он с устрашающей неосознанностью (как во сне) запрягает трёх коней своей призрачной колесницы, имя коим Гипноз, Подсознание, Смерть...* (*синопсис от liosaa)

Доп. информация: ....НОВЕЙШИЙ ПЕРЕВОД от liosaa!!....(фильм любимый, переводил долго, с попыткой расшифровать суть послания Куросавы... вроде получилось -- теперь всё кристально ясно и чисто...... довольно мутный перевод Штейна оставил, как дань эпохе).....видео и 6-канальный звук взяты с испанского блю-рэя... (картинка там интерлейсная, но уж какая есть -- однозначно виват, испания!)
**СЭМПЛ**
Тип релиза: BDRemux
Контейнер: MKV
Видео: 1920x1080i (16:9), 25,000 fps, 19001 kbps, AVC (High@L4.1)
Аудио 1: AC3 5.1, 48 kHz, 384 kbps | рус (liosaa)
Аудио 2: AC3 2.0, 48 kHz, 192 kbps | рус (Владимир Штейн)
Аудио 3: AC3 5.1, 48 kHz, 384 kbps | jap
Формат субтитров: softsub (SRT)
MediaInfo
Формат : Matroska
Версия формата : Version 4 / Version 2
Размер файла : 15,5 Гбайт
Продолжительность : 1 ч. 51 м.
Режим общего битрейта : Переменный
Общий поток : 20,0 Мбит/сек
Дата кодирования : UTC 2015-06-12 14:17:45
Программа кодирования : mkvmerge v6.7.0 ('Back to the Ground') 32bit built on Jan 8 2014 15:03:17
Библиотека кодирования : libebml v1.3.0 + libmatroska v1.4.1
Видео
Идентификатор : 1
Формат : AVC
Формат/Информация : Advanced Video Codec
Профиль формата : High@L4.1
Параметр CABAC формата : Да
Параметр ReFrames формата : 4 кадра
Идентификатор кодека : V_MPEG4/ISO/AVC
Продолжительность : 1 ч. 51 м.
Вид битрейта : Переменный
Битрейт : 18,6 Мбит/сек
Максимальный битрейт : 30,0 Мбит/сек
Ширина : 1920 пикселей
Высота : 1080 пикселей
Соотношение сторон : 16:9
Режим частоты кадров : Постоянный
Частота кадров : 25,000 кадров/сек
Стандарт вещания : PAL
Цветовое пространство : YUV
Субдискретизация насыщенности : 4:2:0
Битовая глубина : 8 бит
Тип развёртки : MBAFF
Бит/(Пиксели*Кадры) : 0.359
Размер потока : 14,5 Гбайт (93%)
Default : Да
Forced : Нет
Основные цвета : BT.709
Характеристики трансфера : BT.709
Коэффициенты матрицы : BT.709
Аудио #1
Идентификатор : 2
Формат : AC-3
Формат/Информация : Audio Coding 3
Расширение режима : CM (complete main)
Параметр Endianness формата : Big
Идентификатор кодека : A_AC3
Продолжительность : 1 ч. 51 м.
Вид битрейта : Постоянный
Битрейт : 384 Кбит/сек
Каналы : 6 каналов
Расположение каналов : Front: L C R, Side: L R, LFE
Частота : 48,0 КГц
Битовая глубина : 16 бит
Метод сжатия : С потерями
Размер потока : 306 Мбайт (2%)
Заголовок : (liosaa) 5.1
Язык : Russian
Default : Да
Forced : Нет
Аудио #2
Идентификатор : 3
Формат : AC-3
Формат/Информация : Audio Coding 3
Расширение режима : CM (complete main)
Параметр Endianness формата : Big
Идентификатор кодека : A_AC3
Продолжительность : 1 ч. 51 м.
Вид битрейта : Постоянный
Битрейт : 192 Кбит/сек
Каналы : 2 канала
Расположение каналов : Front: L R
Частота : 48,0 КГц
Битовая глубина : 16 бит
Метод сжатия : С потерями
Размер потока : 153 Мбайт (1%)
Заголовок : (Владимир Штейн) 2.0
Язык : Russian
Default : Нет
Forced : Нет
Аудио #3
Идентификатор : 4
Формат : AC-3
Формат/Информация : Audio Coding 3
Расширение режима : CM (complete main)
Параметр Endianness формата : Big
Идентификатор кодека : A_AC3
Продолжительность : 1 ч. 51 м.
Вид битрейта : Постоянный
Битрейт : 384 Кбит/сек
Каналы : 6 каналов
Расположение каналов : Front: L C R, Side: L R, LFE
Частота : 48,0 КГц
Битовая глубина : 16 бит
Метод сжатия : С потерями
Размер потока : 306 Мбайт (2%)
Заголовок : (original) 5.1
Язык : Japanese
Default : Нет
Forced : Нет
Текст #1
Идентификатор : 5
Формат : UTF-8
Идентификатор кодека : S_TEXT/UTF8
Идентификатор кодека/Информация : UTF-8 Plain Text
Заголовок : (liosaa) sub
Язык : Russian
Default : Да
Forced : Нет
Текст #2
Идентификатор : 6
Формат : UTF-8
Идентификатор кодека : S_TEXT/UTF8
Идентификатор кодека/Информация : UTF-8 Plain Text
Заголовок : (english) sub
Язык : English
Default : Нет
Forced : Нет
Скриншоты
Скачать

Скачать торрент!

Как скачивать? · Что такое торрент? · Рейтинг и ограничения

Сайт не распространяет и не хранит электронные версии произведений, а лишь предоставляет доступ к создаваемому пользователями каталогу ссылок на торрент-файлы, которые содержат только списки хеш-сумм

[Профиль] [ЛС]
Показать сообщения:    
Ответить на тему

Текущее время: Сегодня 07:07

Часовой пояс: GMT + 4



Вы не можете начинать темы
Вы не можете отвечать на сообщения
Вы не можете редактировать свои сообщения
Вы не можете удалять свои сообщения
Вы не можете голосовать в опросах
Вы не можете прикреплять файлы к сообщениям
Вы не можете скачивать файлы