Папа / Dad (Гари Дэвид Голдберг / Gary David Goldberg) [1989, США, драма, семейный, комедия, WEB-DL 720p] MVO + Sub Rus, Eng + Original Eng

Ответить на тему
 
Автор Сообщение

user ®

Стаж: 7 лет 7 месяцев

Сообщений: 20008

Пост Пост: #1 от 16-Июн-2015 00:57

[Цитировать]

Папа / Dad
Страна: США
Жанр: драма, семейный, комедия
Год выпуска: 1989
Продолжительность: 01:57:24
Перевод: Профессиональный (многоголосый закадровый)
Cубтитры: русские, английские
Оригинальная аудиодорожка: английский
Режиссер: Гари Дэвид Голдберг / Gary David Goldberg
В ролях: Джек Леммон, Тед Дэнсон, Олимпия Дукакис, Кэти Бейкер, Кевин Спейси, Итан Хоук, Закес Мокае, Дж.Т. Уолш, Питер Майкл Гец, Джон Аписелла...
Описание: Преуспевающий бизнесмен с Уолл-стрит Джон узнает о том, что его 75-летний отец Джейк при смерти. Джон возвращается в дом своих родителей и начинает ухаживать за пожилым отцом.
Несмотря на то, что много лет назад Джон и Джейк пережили тяжелый разрыв, положивший конец их теплым отношениям, неожиданное воссоединение учит их заботиться друг о друге и понимать друг друга заново. И вскоре отец и сын становятся близки друг к другу как никогда раньше…
Доп. информация: 5.1 с [url=http://***/forum/viewtopic.php?t=2807119]DVD[/url] оказалась дутой, поэтому перекодирована в стерео.
Сэмпл: http://multi-up.com/1053669
Тип релиза: WEB-DL 720p
Контейнер: MKV
Видео: 1280x694 (16:9), 23.976 fps, AVC, ~4020 Kbps, 0.189 bits/pixel
Аудио 1: Russian, 48.0 KHz, AC3, 2 ch, 192 Kbps
Аудио 2: English, 48.0 KHz, AC3, 2 ch, 192 Kbps

MediaInfo
General
Unique ID : 182217567215046469484726292410231152745 (0x8915D3B053B0A1BAA951CECA3513E069)
Complete name : D:\Dad.mkv
Format : Matroska
Format version : Version 4 / Version 2
File size : 3.68 GiB
Duration : 1h 57mn
Overall bit rate : 4 493 Kbps
Movie name :
Encoded date : UTC 2015-06-14 13:01:28
Writing application : mkvmerge v7.9.0 ('Birds') 64bit
Writing library : libebml v1.3.1 + libmatroska v1.4.2
DURATION : 01:57:23.456000000
NUMBER_OF_FRAMES : 220108
NUMBER_OF_BYTES : 169042944
_STATISTICS_WRITING_APP : mkvmerge v7.9.0 ('Birds') 64bit
_STATISTICS_WRITING_DATE_UT : 2015-06-14 13:01:28
_STATISTICS_TAGS : BPS DURATION NUMBER_OF_FRAMES NUMBER_OF_BYTES
Video
ID : 1
Format : AVC
Format/Info : Advanced Video Codec
Format profile : High@L3.1
Format settings, CABAC : No
Format settings, ReFrames : 2 frames
Codec ID : V_MPEG4/ISO/AVC
Duration : 1h 57mn
Bit rate : 4 020 Kbps
Width : 1 280 pixels
Height : 694 pixels
Display aspect ratio : 1.85:1
Frame rate mode : Constant
Frame rate : 23.976 fps
Color space : YUV
Chroma subsampling : 4:2:0
Bit depth : 8 bits
Scan type : Progressive
Bits/(Pixel*Frame) : 0.189
Stream size : 3.30 GiB (89%)
Language : English
Default : Yes
Forced : No
Color range : Limited
Color primaries : BT.709
Transfer characteristics : BT.709
Matrix coefficients : BT.709
Audio #1
ID : 2
Format : AC-3
Format/Info : Audio Coding 3
Mode extension : CM (complete main)
Format settings, Endianness : Big
Codec ID : A_AC3
Duration : 1h 57mn
Bit rate mode : Constant
Bit rate : 192 Kbps
Channel(s) : 2 channels
Channel positions : Front: L R
Sampling rate : 48.0 KHz
Compression mode : Lossy
Stream size : 161 MiB (4%)
Language : Russian
Default : Yes
Forced : No
Audio #2
ID : 3
Format : AC-3
Format/Info : Audio Coding 3
Format profile : Dolby Digital
Mode extension : CM (complete main)
Format settings, Endianness : Big
Codec ID : A_AC3
Duration : 1h 57mn
Bit rate mode : Constant
Bit rate : 192 Kbps
Channel(s) : 2 channels
Channel positions : Front: L R
Sampling rate : 48.0 KHz
Compression mode : Lossy
Stream size : 161 MiB (4%)
Language : English
Default : No
Forced : No
Text #1
ID : 4
Format : UTF-8
Codec ID : S_TEXT/UTF8
Codec ID/Info : UTF-8 Plain Text
Language : Russian
Default : No
Forced : No
Text #2
ID : 5
Format : UTF-8
Codec ID : S_TEXT/UTF8
Codec ID/Info : UTF-8 Plain Text
Language : English
Default : No
Forced : No
Menu
00:00:00.000 : en:Time to Get Up (Main Titles)
00:06:20.000 : en:Mom's Had a Heart Attack
00:14:28.000 : en:Taking Care of Dad
00:23:07.000 : en:Doing Chores and Having Fun
00:30:43.000 : en:The World Has Changed
00:38:15.000 : en:Spending Time Together
00:44:59.000 : en:In the Bosom of the Family
00:49:03.000 : en:A Serious Problem
00:55:25.000 : en:Unscheduled Release
01:00:32.000 : en:Sleep on It
01:07:33.000 : en:A Second Opinion
01:15:25.000 : en:Miraculous Recovery
01:19:12.000 : en:Just Having Fun
01:25:16.000 : en:Living in a Dream World
01:30:35.000 : en:Getting Off Track
01:40:33.000 : en:Be Forgiving
01:45:48.000 : en:Human After All
01:54:07.000 : en:End Titles
Скриншоты
Скачать

Скачать торрент!

Как скачивать? · Что такое торрент? · Рейтинг и ограничения

Сайт не распространяет и не хранит электронные версии произведений, а лишь предоставляет доступ к создаваемому пользователями каталогу ссылок на торрент-файлы, которые содержат только списки хеш-сумм

[Профиль] [ЛС]
Показать сообщения:    
Ответить на тему

Текущее время: Сегодня 05:09

Часовой пояс: GMT + 4



Вы не можете начинать темы
Вы не можете отвечать на сообщения
Вы не можете редактировать свои сообщения
Вы не можете удалять свои сообщения
Вы не можете голосовать в опросах
Вы не можете прикреплять файлы к сообщениям
Вы не можете скачивать файлы