Голубоглазый Микки / Mickey Blue Eyes (Келли Макин / Kelly Makin) [1999, США, комедия, криминал, мелодрама, HDTV 1080i] Dub + MVO (1 канал) + Sub Rus + Original Eng

Ответить на тему
 
Автор Сообщение

user ®

Стаж: 7 лет 7 месяцев

Сообщений: 20008

Пост Пост: #1 от 16-Июн-2015 00:57

[Цитировать]

Голубоглазый Микки / Mickey Blue Eyes
Страна: США
Жанр: Комедия, криминал, мелодрама
Год выпуска: 1999
Продолжительность: 01:37:42
Перевод: Профессиональный (дублированный)
Перевод 2: Профессиональный (многоголосый закадровый) 1 канал
Cубтитры: русские
Оригинальная аудиодорожка: английский
Режиссер: Келли Макин / Kelly Makin
В ролях: Хью Грант, Джеймс Каан, Джинн Трипплхорн, Берт Янг, Джеймс Фокс, Джо Витерелли, Джерри Бекер, Мэдди Кормэн, Тони Дарроу, Пол Лэзар
Описание: Добропорядочный Микки Фелгейт влюбился в дочь нью-йоркского гангстера Джину Витале. Но узнает об этом, когда речь уже зашла о свадьбе.
Эта новость не сильно смутила Микки, да и Фрэнк Витале оказался милейшим человеком и встретил будущего зятя с распростертыми объятиями.
Микки, можно сказать, был досрочно принят в «семью». А раз так, то скоро изумленный жених оказался в эпицентре событий, явно незаконного свойства. Он все понял, но было поздно…
Доп. информация: Видеоряд полный, без рекламных вставок - все восстановлено. Финальные титры на телеканале убыстренно-укороченные, но звуковые дорожки сделал полные - продолжительность фильма по ним. Дубляж и английская с DVD.
PS Не со всеми сплиттерами плеер будет показывать фильм полностью - только до конца видеодорожки (01:34:30). Например Haali не будет, а встроенный в MPC-HC показывает до конца.
Сэмпл: https://yadi.sk/i/lKNVSXsnhFEBJ
Тип релиза: HDTV 1080i
Контейнер: MKV
Видео: AVC, 1920x1080 (16:9), 25.000 fps, 11.1 Mbps (0.215 bit/pixel)
Аудио: AC-3, 48.0 KHz, 6 ch, 384 Kbps, CBR (Russian) - dub
Аудио 2: AC-3, 48.0 KHz, 2 ch, 192 Kbps, CBR (Russian) - mvo
Аудио 3: AC-3, 48.0 KHz, 6 ch, 384 Kbps, CBR (English)
Формат субтитров: softsub (SRT)
MediaInfo
Общее
Уникальный идентификатор : 207188227633954994622222834078894217514 (0x9BDF004CD6DF073981308157848F592A)
Полное имя : K:\МОИ РАЗДАЧИ\Голубоглазый Микки\Голубоглазый Микки.mkv
Формат : Matroska
Версия формата : Version 4 / Version 2
Размер файла : 8,41 Гбайт
Продолжительность : 1 ч. 37 м.
Общий поток : 12,3 Мбит/сек
Дата кодирования : UTC 2015-06-14 15:30:42
Программа кодирования : mkvmerge v7.9.0 ('Birds') 64bit
Библиотека кодирования : libebml v1.3.1 + libmatroska v1.4.2
DURATION : 01:32:23.956000000
NUMBER_OF_FRAMES : 1088
NUMBER_OF_BYTES : 75296
_STATISTICS_WRITING_APP : mkvmerge v7.9.0 ('Birds') 64bit
_STATISTICS_WRITING_DATE_UTC : 2015-06-14 15:30:42
_STATISTICS_TAGS : BPS DURATION NUMBER_OF_FRAMES NUMBER_OF_BYTES
Видео
Идентификатор : 1
Формат : AVC
Формат/Информация : Advanced Video Codec
Профиль формата : Main@L4.0
Параметр CABAC формата : Да
Параметр ReFrames формата : 3 кадра
Идентификатор кодека : V_MPEG4/ISO/AVC
Продолжительность : 1 ч. 37 м.
Битрейт : 11,1 Мбит/сек
Ширина : 1920 пикселей
Высота : 1080 пикселей
Соотношение сторон : 16:9
Режим частоты кадров : Постоянный
Частота кадров : 24,213 кадра/сек
Частота кадров в оригинале : 25,000 кадров/сек
Стандарт вещания : Component
Цветовое пространство : YUV
Субдискретизация насыщенности : 4:2:0
Битовая глубина : 8 бит
Тип развёртки : Чересстрочная
Порядок развёртки : Верхнее поле первое
Бит/(Пиксели*Кадры) : 0.222
Размер потока : 7,59 Гбайт (90%)
Заголовок : Голубоглазый Микки / Mickey Blue Eyes (1999)
Язык : English
Default : Да
Forced : Нет
Основные цвета : BT.709
Характеристики трансфера : BT.709
Коэффициенты матрицы : BT.709
Аудио #1
Идентификатор : 2
Формат : AC-3
Формат/Информация : Audio Coding 3
Расширение режима : CM (complete main)
Параметр Endianness формата : Big
Идентификатор кодека : A_AC3
Продолжительность : 1 ч. 37 м.
Вид битрейта : Постоянный
Битрейт : 384 Кбит/сек
Каналы : 6 каналов
Расположение каналов : Front: L C R, Side: L R, LFE
Частота : 48,0 КГц
Битовая глубина : 16 бит
Метод сжатия : С потерями
Задержка видео : -17 мс.
Размер потока : 268 Мбайт (3%)
Заголовок : Профессиональный (полное дублирование)
Язык : Russian
Default : Да
Forced : Нет
Аудио #2
Идентификатор : 3
Формат : AC-3
Формат/Информация : Audio Coding 3
Расширение режима : CM (complete main)
Параметр Endianness формата : Big
Идентификатор кодека : A_AC3
Продолжительность : 1 ч. 37 м.
Вид битрейта : Постоянный
Битрейт : 192 Кбит/сек
Каналы : 2 канала
Расположение каналов : Front: L R
Частота : 48,0 КГц
Битовая глубина : 16 бит
Метод сжатия : С потерями
Задержка видео : -17 мс.
Размер потока : 134 Мбайт (2%)
Заголовок : Профессиональный (многоголосый закадровый) 1 канал
Язык : Russian
Default : Нет
Forced : Нет
Аудио #3
Идентификатор : 4
Формат : AC-3
Формат/Информация : Audio Coding 3
Расширение режима : CM (complete main)
Параметр Endianness формата : Big
Идентификатор кодека : A_AC3
Продолжительность : 1 ч. 37 м.
Вид битрейта : Постоянный
Битрейт : 384 Кбит/сек
Каналы : 6 каналов
Расположение каналов : Front: L C R, Side: L R, LFE
Частота : 48,0 КГц
Битовая глубина : 16 бит
Метод сжатия : С потерями
Задержка видео : -17 мс.
Размер потока : 268 Мбайт (3%)
Заголовок : Английский
Язык : English
Default : Нет
Forced : Нет
Текст
Идентификатор : 5
Формат : UTF-8
Идентификатор кодека : S_TEXT/UTF8
Идентификатор кодека/Информация : UTF-8 Plain Text
Заголовок : русские
Язык : Russian
Default : Нет
Forced : Нет
Скриншоты
Скачать

Скачать торрент!

Как скачивать? · Что такое торрент? · Рейтинг и ограничения

Сайт не распространяет и не хранит электронные версии произведений, а лишь предоставляет доступ к создаваемому пользователями каталогу ссылок на торрент-файлы, которые содержат только списки хеш-сумм

[Профиль] [ЛС]
Показать сообщения:    
Ответить на тему

Текущее время: Сегодня 12:34

Часовой пояс: GMT + 4



Вы не можете начинать темы
Вы не можете отвечать на сообщения
Вы не можете редактировать свои сообщения
Вы не можете удалять свои сообщения
Вы не можете голосовать в опросах
Вы не можете прикреплять файлы к сообщениям
Вы не можете скачивать файлы