Гонки "Пушечное Ядро" - 2 / Cannonball Run II (Хэл Нидэм / Hal Needham) [1984, США, Гонконг, боевик, комедия, BDRip 1080p] MVO (РТР) + Sub Eng + Original Eng

Ответить на тему
 
Автор Сообщение

user ®

Стаж: 7 лет 7 месяцев

Сообщений: 20008

Пост Пост: #1 от 16-Июн-2015 00:57

[Цитировать]

Гонки "Пушечное Ядро" - 2 / Cannonball Run II
Страна: США, Гонконг
Жанр: боевик, комедия
Год выпуска: 1984
Продолжительность: 01:49:08
Перевод: Профессиональный (многоголосый закадровый) РТР [Россия-1]
Cубтитры: английские
Оригинальная аудиодорожка: английский
Режиссер: Хэл Нидэм / Hal Needham
В ролях: Джеки Чан, Берт Рейнолдс, Дом ДеЛуис, Дин Мартин, Сэмми Дэвис-мл., Джейми Фэрр, Марилу Хеннер, Телли Савалас, Ширли МакЛейн, Сьюзэн Энтон
Описание: Арабский шейх устроил своему сыну выволочку за то, что тот проиграл автогонку "Кеннонбол". Чтобы доказать отцу, что природа на нем не отдыхает, молодой шейх решил купить следующую гонку и установил приз победителю в миллион долларов США. Теперь он уверен, - победа у него кармане, но обстоятельства обернулись иначе. На обещанный миллион в Америку слетаются многочисленные авантюристы, включая итальянскую мафию. Последние желают не только завладеть указанной суммой, но и увеличить ее, взяв в заложники богатого арабского наследника. По этому поводу все гонщики и им сочувствующие объединяются, чтобы спасти молодого шейха. Это им удается и гонка продолжается, но... шейх ее проигрывает. Что же делать? Папа будет ругаться... Делать нечего, придется купить еще одну гонку...
Сэмпл: https://yadi.sk/i/dRXTkiiZhFHNC
Тип релиза: BDRip 1080p
Контейнер: MKV
Видео: V_MPEG4/ISO/AVC, 10.8 Mbps, 1920 x 1080 p, 24.000 fps, High@L4.1
Аудио 1: AC3, 192 Kbps, 2 channels, 48.0 KHz
Аудио 2: AC3, 640 Kbps, 2 channels, 48.0 KHz
MediaInfo
General
Unique ID : 245909310264176750160932656495695373981 (0xB90069118E6E428CAAF778C87AA2269D)
Complete name : D:\видео\video\BDRip\[1984] Cannonball Run II.mkv
Format : Matroska
Format version : Version 2
File size : 8.89 GiB
Duration : 1h 49mn
Overall bit rate : 11.7 Mbps
Encoded date : UTC 2015-06-10 13:19:35
Writing application : mkvmerge v4.0.0 ('The Stars were mine') сборка от Jun 6 2010 16:18:42
Writing library : libebml v1.0.0 + libmatroska v1.0.0
Video
ID : 1
Format : AVC
Format/Info : Advanced Video Codec
Format profile : High@L4.1
Format settings, CABAC : Yes
Format settings, ReFrames : 4 frames
Codec ID : V_MPEG4/ISO/AVC
Duration : 1h 49mn
Bit rate : 10.8 Mbps
Width : 1 920 pixels
Height : 1 080 pixels
Display aspect ratio : 16:9
Frame rate mode : Constant
Frame rate : 24.000 fps
Color space : YUV
Chroma subsampling : 4:2:0
Bit depth : 8 bits
Scan type : Progressive
Bits/(Pixel*Frame) : 0.218
Stream size : 8.08 GiB (91%)
Writing library : x264 core 142 r2491 24e4fed
Encoding settings : cabac=1 / ref=4 / deblock=1:-3:-3 / analyse=0x3:0x113 / me=umh / subme=8 / psy=1 / psy_rd=1.00:0.00 / mixed_ref=1 / me_range=16 / chroma_me=1 / trellis=1 / 8x8dct=1 / cqm=0 / deadzone=21,11 / fast_pskip=1 / chroma_qp_offset=-2 / threads=18 / lookahead_threads=3 / sliced_threads=0 / nr=0 / decimate=1 / interlaced=0 / bluray_compat=0 / constrained_intra=0 / bframes=3 / b_pyramid=2 / b_adapt=2 / b_bias=0 / direct=3 / weightb=1 / open_gop=0 / weightp=2 / keyint=240 / keyint_min=24 / scenecut=40 / intra_refresh=0 / rc_lookahead=50 / rc=2pass / mbtree=1 / bitrate=10830 / ratetol=1.0 / qcomp=0.60 / qpmin=0 / qpmax=69 / qpstep=4 / cplxblur=20.0 / qblur=0.5 / ip_ratio=1.40 / aq=1:1.00
Language : English
Default : No
Forced : No
Audio #1
ID : 2
Format : AC-3
Format/Info : Audio Coding 3
Mode extension : CM (complete main)
Format settings, Endianness : Big
Codec ID : A_AC3
Duration : 1h 49mn
Bit rate mode : Constant
Bit rate : 192 Kbps
Channel(s) : 2 channels
Channel positions : Front: L R
Sampling rate : 48.0 KHz
Bit depth : 16 bits
Compression mode : Lossy
Stream size : 150 MiB (2%)
Title : Профессиональный (многоголосый, закадровый) "РТР-Россия 1"
Language : Russian
Default : No
Forced : No
Audio #2
ID : 3
Format : AC-3
Format/Info : Audio Coding 3
Mode extension : CM (complete main)
Format settings, Endianness : Big
Codec ID : A_AC3
Duration : 1h 49mn
Bit rate mode : Constant
Bit rate : 640 Kbps
Channel(s) : 2 channels
Channel positions : Front: L R
Sampling rate : 48.0 KHz
Bit depth : 16 bits
Compression mode : Lossy
Stream size : 500 MiB (5%)
Language : English
Default : No
Forced : No
Text
ID : 4
Format : UTF-8
Codec ID : S_TEXT/UTF8
Codec ID/Info : UTF-8 Plain Text
Language : English
Default : No
Forced : No
Menu
00:00:00.000 : en:00:00:00.000
00:08:38.042 : en:00:08:38.042
00:13:38.708 : en:00:13:38.708
00:17:56.250 : en:00:17:56.250
00:28:11.250 : en:00:28:11.250
00:33:29.042 : en:00:33:29.042
00:42:37.542 : en:00:42:37.542
00:50:26.583 : en:00:50:26.583
01:02:39.917 : en:01:02:39.917
01:15:41.000 : en:01:15:41.000
01:18:48.250 : en:01:18:48.250
01:22:37.083 : en:01:22:37.083
01:32:28.292 : en:01:32:28.292
01:45:15.792 : en:01:45:15.792
Скриншоты
Скачать

Скачать торрент!

Как скачивать? · Что такое торрент? · Рейтинг и ограничения

Сайт не распространяет и не хранит электронные версии произведений, а лишь предоставляет доступ к создаваемому пользователями каталогу ссылок на торрент-файлы, которые содержат только списки хеш-сумм

[Профиль] [ЛС]
Показать сообщения:    
Ответить на тему

Текущее время: Сегодня 23:44

Часовой пояс: GMT + 4



Вы не можете начинать темы
Вы не можете отвечать на сообщения
Вы не можете редактировать свои сообщения
Вы не можете удалять свои сообщения
Вы не можете голосовать в опросах
Вы не можете прикреплять файлы к сообщениям
Вы не можете скачивать файлы