Три плюс два (Генрих Оганисян) [1963, комедия, HDTVRip]

Ответить на тему
 
Автор Сообщение

user ®

Стаж: 7 лет 7 месяцев

Сообщений: 20008

Пост Пост: #1 от 15-Июн-2015 21:51

[Цитировать]

Три плюс два / Широкоэкранная версия
Жанр: комедия
Год выпуска: 1963
Продолжительность: 01:35:05

Режиссёр: Генрих Оганисян
В ролях: Андрей Миронов, Евгений Жариков, Геннадий Нилов, Наталия Кустинская, Наталья Фатеева
Описание: Трое друзей решили провести отпуск дикарями на берегу Черного моря. Но отдыху героев помешали две девушки, заявившие, что место по праву принадлежит им. Девушки не собираются уезжать и пытаются создать соседям невыносимые условия. Но вскоре вражда перерастает в любовь.
Качество видео: [url=http://***/forum/viewtopic.php?t=4957029]HDTVRip[/url]
Формат видео: AVI
Видео: 720x304 (2.37:1), 25 fps, XviD build 73 ~1989 kbps avg, 0.36 bit/pixel
Аудио: 48 kHz, AC3 Dolby Digital, 2/0 (L,R) ch, ~192 kbps


Сравнение
[url=http://***/forum/viewtopic.php?t=2964741]http://***/forum/viewtopic.php?t=2964741[/url]
http://screenshotcomparison.com/comparison/131313
[url=http://***/forum/viewtopic.php?t=2582362]http://***/forum/viewtopic.php?t=2582362[/url]
другая версия
[url=http://***/forum/viewtopic.php?t=1723489]http://***/forum/viewtopic.php?t=1723489[/url]
http://screenshotcomparison.com/comparison/131312
MediaInfo
Общее
Полное имя : H:\Три.плюс.два.1963.hdtvrip_[1.46]_[teko].avi
Формат : AVI
Формат/Информация : Audio Video Interleave
Размер файла : 1,46 Гбайт
Продолжительность : 1 ч. 35 м.
Общий поток : 2192 Кбит/сек
Программа кодирования : VirtualDubMod 1.5.10.3 | www.virtualdub-fr.org || (build 2550/release)
Библиотека кодирования : VirtualDubMod build 2550/release
Видео
Идентификатор : 0
Формат : MPEG-4 Visual
Профиль формата : Advanced Simple@L5
Параметр BVOP формата : 1
Параметр QPel формата : Нет
Параметр GMC формата : Без точки перехода
Параметр матрицы формата : Выборочная
Идентификатор кодека : XVID
Идентификатор кодека/Подсказка : XviD
Продолжительность : 1 ч. 35 м.
Битрейт : 1990 Кбит/сек
Ширина : 720 пикселей
Высота : 304 пикселя
Соотношение сторон : 2,35:1
Частота кадров : 25,000 кадров/сек
Цветовое пространство : YUV
Субдискретизация насыщенности : 4:2:0
Битовая глубина : 8 бит
Тип развёртки : Прогрессивная
Метод сжатия : С потерями
Бит/(Пиксели*Кадры) : 0.364
Размер потока : 1,32 Гбайт (91%)
Библиотека кодирования : XviD 73
Аудио
Идентификатор : 1
Формат : AC-3
Формат/Информация : Audio Coding 3
Расширение режима : CM (complete main)
Параметр Endianness формата : Big
Идентификатор кодека : 2000
Продолжительность : 1 ч. 35 м.
Вид битрейта : Постоянный
Битрейт : 192 Кбит/сек
Каналы : 2 канала
Расположение каналов : Front: L R
Частота : 48,0 КГц
Битовая глубина : 16 бит
Метод сжатия : С потерями
Размер потока : 131 Мбайт (9%)
Выравнивание : Разделение по промежуткам
Продолжительность промежутка : 40 мс. (1,00 видеокадр)
Время предзагрузки промежутка : 500 мс.
Скриншоты Релиз группы:
[url=http://***/forum/viewtopic.php?t=1677970] [/url]
--
Скачать

Скачать торрент!

Как скачивать? · Что такое торрент? · Рейтинг и ограничения

Сайт не распространяет и не хранит электронные версии произведений, а лишь предоставляет доступ к создаваемому пользователями каталогу ссылок на торрент-файлы, которые содержат только списки хеш-сумм

[Профиль] [ЛС]
Показать сообщения:    
Ответить на тему

Текущее время: Сегодня 18:12

Часовой пояс: GMT + 4



Вы не можете начинать темы
Вы не можете отвечать на сообщения
Вы не можете редактировать свои сообщения
Вы не можете удалять свои сообщения
Вы не можете голосовать в опросах
Вы не можете прикреплять файлы к сообщениям
Вы не можете скачивать файлы