Мальчишник / Bachelor Party (Нил Израэл / Neal Israel) [1984, США, комедия, BDRip 1080p] MVO + AVO (Михалёв) + Original Eng + Sub Rus, Eng

Ответить на тему
 
Автор Сообщение

user ®

Стаж: 7 лет 7 месяцев

Сообщений: 20008

Пост Пост: #1 от 15-Июн-2015 00:12

[Цитировать]

МальчишникBachelor Party«Shocking, Shameless, Sinful, Wicked. And the party hasn't even started»- Страна: США, Aspect Ratio Film, Bachelor Party Productions, Twin Continental
Жанр: комедия
Год выпуска: 1984
Продолжительность: 01:45:29-Перевод 1: Профессиональный (многоголосый, закадровый)
Перевод 2: Профессиональный (двухголосый, закадровый) Ren-TV
Перевод 3: Авторский (одноголосый закадровый) Михалев Алексей
Перевод 4: Авторский (одноголосый закадровый) Володарский Леонид
Субтитры: русские, английские
Режиссер: Нил Израэл / Neal Israel
В ролях: Том Хэнкс, Тоуни Китаен, Адриан Змед, Джордж Гриззард, Барбара Стюарт, Роберт Прескотт, Уильям Теппер, Уэнди Джо Спербер, Бэрри Даймонд, Гари Гроссман-Описание: В последний день перед свадьбой водитель школьного автобуса Рик решает собрать всех друзей на последнюю отвязную вечеринку по принципу «пива и женщин много не бывает». Его невеста Дебби берет ситуацию под свои контроль и возглавляет отряд верных подружек, направляющихся на мальчишник.
Устроив ловушку проституткам, вызванным к Рику, подружки переодеваются и проникают в дом, где проходит вечеринка. Тем временем богатый отец Дебби, недовольный тем, что дочь выходит замуж за неудачника, натравливает на всю компанию бывшего возлюбленного Дебби с целью вернуть дочь любой ценой.
Рик доблестно справится с ситуацией - отлично повеселится, не ударит в грязь лицом перед друзьями и при этом сохранит верность своей невесте.-
MPAA: R - Лицам до 17 лет обязательно присутствие взрослого-Качество: BDRip (SbR)
Контейнер: MKV
Видео: 1920x1040p, 23.976 fps, x264 ~20000 kbps
Аудио №1: русский / AC3 5.1 / 48 kHz / 448 kbps |Многоголосый закадровый|
Аудио №2: русский / AC3 2.0 / 48 kHz / 192 kbps |Ren-TV (VHSRip)|
Аудио №3: русский / AC3 3.1 / 48 kHz / 448 kbps |Михалёв|
Аудио №4: русский / FLAC / 1.0 / 48 kHz / 748 kbps / 24 bit |Михалёв|
Аудио №5: русский / AC3 2.0 / 48 kHz / 192 kbps |Володарский|
Аудио №6: английский / AC3 / 3.1 / 48 kHz / 448 kbps
Аудио №7: английский / FLAC / 1.0 / 48 kHz / 696 kbps / 24 bit
Субтитры: русские, английские-Скриншоты Media Info
General
Unique ID : 233831206806285887370909763430442887627 (0xAFEA409785A5411EB670EB178D1869CB)
Complete name : G:\Bachelor.Party.1984.1080p.BluRay.4xRus.Eng-SbR.mkv
Format : Matroska
Format version : Version 4 / Version 2
File size : 17.1 GiB
Duration : 1h 45mn
Overall bit rate mode : Variable
Overall bit rate : 23.2 Mbps
Movie name : Bachelor Party (1984) - Release by SbR
Encoded date : UTC 2015-06-12 13:47:11
Writing application : mkvmerge v7.9.0 ('Birds') 64bit
Writing library : libebml v1.3.1 + libmatroska v1.4.2
Attachements : cover.jpg / xlog.txt
Video
ID : 1
Format : AVC
Format/Info : Advanced Video Codec
Format profile : High@L4.1
Format settings, CABAC : Yes
Format settings, ReFrames : 4 frames
Codec ID : V_MPEG4/ISO/AVC
Duration : 1h 45mn
Nominal bit rate : 20.0 Mbps
Width : 1 920 pixels
Height : 1 040 pixels
Display aspect ratio : 1.85:1
Frame rate mode : Constant
Frame rate : 23.976 fps
Color space : YUV
Chroma subsampling : 4:2:0
Bit depth : 8 bits
Scan type : Progressive
Bits/(Pixel*Frame) : 0.418
Writing library : x264 core 146 r2538kMod 121396c
Encoding settings : cabac=1 / ref=4 / deblock=1:-2:-2 / analyse=0x3:0x133 / me=umh / subme=10 / psy=1 / fade_compensate=0.00 / psy_rd=1.00:0.25 / mixed_ref=1 / me_range=24 / chroma_me=1 / trellis=2 / 8x8dct=1 / cqm=0 / deadzone=6,6 / fast_pskip=0 / chroma_qp_offset=-4 / threads=12 / lookahead_threads=2 / sliced_threads=0 / nr=0 / decimate=0 / interlaced=0 / bluray_compat=0 / constrained_intra=0 / fgo=0 / bframes=9 / b_pyramid=2 / b_adapt=2 / b_bias=0 / direct=3 / weightb=1 / open_gop=0 / weightp=2 / keyint=250 / keyint_min=23 / scenecut=40 / intra_refresh=0 / rc_lookahead=120 / rc=2pass / mbtree=1 / bitrate=20000 / ratetol=1.0 / qcomp=0.80 / qpmin=0 / qpmax=69 / qpstep=4 / cplxblur=20.0 / qblur=0.5 / vbv_maxrate=62500 / vbv_bufsize=78125 / nal_hrd=none / filler=0 / ip_ratio=1.10 / aq=1:0.50
Language : English
Default : Yes
Forced : No
Color range : Limited
Color primaries : BT.709
Transfer characteristics : BT.709
Matrix coefficients : BT.709
Audio #1
ID : 2
Format : AC-3
Format/Info : Audio Coding 3
Mode extension : CM (complete main)
Format settings, Endianness : Big
Codec ID : A_AC3
Duration : 1h 45mn
Bit rate mode : Constant
Bit rate : 448 Kbps
Channel(s) : 6 channels
Channel positions : Front: L C R, Side: L R, LFE
Sampling rate : 48.0 KHz
Compression mode : Lossy
Stream size : 338 MiB (2%)
Title : Многоголосый
Language : Russian
Default : Yes
Forced : No
Audio #2
ID : 3
Format : AC-3
Format/Info : Audio Coding 3
Mode extension : CM (complete main)
Format settings, Endianness : Big
Codec ID : A_AC3
Duration : 1h 45mn
Bit rate mode : Constant
Bit rate : 192 Kbps
Channel(s) : 2 channels
Channel positions : Front: L R
Sampling rate : 48.0 KHz
Compression mode : Lossy
Stream size : 145 MiB (1%)
Title : Ren-TV
Language : Russian
Default : No
Forced : No
Audio #3
ID : 4
Format : AC-3
Format/Info : Audio Coding 3
Mode extension : CM (complete main)
Format settings, Endianness : Big
Codec ID : A_AC3
Duration : 1h 45mn
Bit rate mode : Constant
Bit rate : 448 Kbps
Channel(s) : 4 channels
Channel positions : Front: L C R, Back: C
Sampling rate : 48.0 KHz
Compression mode : Lossy
Stream size : 338 MiB (2%)
Title : Михалёв
Language : Russian
Default : No
Forced : No
Audio #4
ID : 5
Format : FLAC
Format/Info : Free Lossless Audio Codec
Codec ID : A_FLAC
Duration : 1h 45mn
Bit rate mode : Variable
Channel(s) : 1 channel
Sampling rate : 48.0 KHz
Bit depth : 24 bits
Title : Михалёв
Writing library : libFLAC 1.2.1 (UTC 2007-09-17)
Language : Russian
Default : No
Forced : No
Audio #5
ID : 6
Format : AC-3
Format/Info : Audio Coding 3
Mode extension : CM (complete main)
Format settings, Endianness : Big
Codec ID : A_AC3
Duration : 1h 45mn
Bit rate mode : Constant
Bit rate : 192 Kbps
Channel(s) : 2 channels
Channel positions : Front: L R
Sampling rate : 48.0 KHz
Compression mode : Lossy
Stream size : 145 MiB (1%)
Title : Володарский
Language : Russian
Default : No
Forced : No
Audio #6
ID : 7
Format : AC-3
Format/Info : Audio Coding 3
Mode extension : CM (complete main)
Format settings, Endianness : Big
Codec ID : A_AC3
Duration : 1h 45mn
Bit rate mode : Constant
Bit rate : 448 Kbps
Channel(s) : 4 channels
Channel positions : Front: L C R, Back: C
Sampling rate : 48.0 KHz
Compression mode : Lossy
Stream size : 338 MiB (2%)
Language : English
Default : No
Forced : No
Audio #7
ID : 8
Format : FLAC
Format/Info : Free Lossless Audio Codec
Codec ID : A_FLAC
Duration : 1h 45mn
Bit rate mode : Variable
Channel(s) : 1 channel
Sampling rate : 48.0 KHz
Bit depth : 24 bits
Writing library : libFLAC 1.2.1 (UTC 2007-09-17)
Language : English
Default : No
Forced : No
Text #1
ID : 9
Format : UTF-8
Codec ID : S_TEXT/UTF8
Codec ID/Info : UTF-8 Plain Text
Language : Russian
Default : No
Forced : No
Text #2
ID : 10
Format : UTF-8
Codec ID : S_TEXT/UTF8
Codec ID/Info : UTF-8 Plain Text
Language : English
Default : No
Forced : No
Menu
00:00:00.000 : en:Main Titles
00:06:52.286 : en:A Grand Slam
00:09:39.077 : en:Ghosts From Outer Space
00:19:35.298 : en:Desmond Spellman
00:24:03.022 : en:Wendy
00:30:40.171 : en:A Ghostly Vacation
00:31:28.260 : en:The Witches Hide Out
00:37:02.969 : en:Where Is Wendy?
00:38:03.947 : en:See-Through Sun Bathers
00:41:23.020 : en:Casper Meets Wendy
00:47:54.496 : en:Friends
00:54:43.779 : en:At the Dance
00:59:13.967 : en:The Magical Meeting
01:04:01.920 : en:Coming Out
01:09:11.771 : en:Telling Secrets
01:12:53.952 : en:Spotted!
01:21:33.930 : en:Desmond Arrives
01:27:34.332 : en:Casper to the Rescue
01:32:12.609 : en:The Mystic Abyss
01:34:29.079 : en:Witch Power
01:40:03.079 : en:Many Thanks
01:41:36.131 : en:End Titles
xlog
raw [info]: 1920x1040p 1:1 @ 24000/1001 fps (cfr)
x264 [info]: using SAR=1/1
x264 [info]: using cpu capabilities: MMX2 SSE2Fast SSSE3 SSE4.2 AVX
x264 [info]: profile High, level 4.1
x264 [info]: frame I:759 Avg QP:25.13 size:161869
x264 [info]: frame P:26536 Avg QP:25.86 size:121360
x264 [info]: frame B:124457 Avg QP:26.44 size:100179
x264 [info]: consecutive B-frames: 1.0% 0.9% 3.0% 16.0% 12.0% 23.8% 11.1% 8.2% 17.1% 6.9%
x264 [info]: mb I I16..4: 1.7% 93.3% 5.0%
x264 [info]: mb P I16..4: 0.4% 44.7% 1.2% P16..4: 26.4% 17.9% 5.3% 0.1% 0.0% skip: 3.9%
x264 [info]: mb B I16..4: 0.0% 15.7% 0.2% B16..8: 40.8% 19.3% 4.5% direct:14.7% skip: 4.9% L0:42.5% L1:41.6% BI:15.9%
x264 [info]: 8x8 transform intra:97.6% inter:63.0%
x264 [info]: direct mvs spatial:92.6% temporal:7.4%
x264 [info]: coded y,uvDC,uvAC intra: 98.9% 62.7% 13.1% inter: 78.1% 52.7% 1.8%
x264 [info]: i16 v,h,dc,p: 24% 15% 32% 29%
x264 [info]: i8 v,h,dc,ddl,ddr,vr,hd,vl,hu: 8% 6% 10% 11% 15% 13% 12% 12% 13%
x264 [info]: i4 v,h,dc,ddl,ddr,vr,hd,vl,hu: 8% 6% 3% 10% 16% 16% 15% 12% 14%
x264 [info]: i8c dc,h,v,p: 53% 21% 19% 6%
x264 [info]: Weighted P-Frames: Y:7.8% UV:3.0%
x264 [info]: ref P L0: 42.2% 11.2% 27.5% 17.4% 1.7% 0.0%
x264 [info]: ref B L0: 78.8% 17.7% 3.5%
x264 [info]: ref B L1: 83.6% 16.4%
x264 [info]: kb/s:19984.74
encoded 151752 frames, 3.71 fps, 19984.73 kb/s, duration 11:21:00.74
Сэмпл Дополнительно
Исходник BDRemux HDCLUB. Спасибо Прагматик.
Прагматик писал(а):
* Дорога №3 получена микшированием чистого голоса переводчика с центром декодированного DTS-HD MA оригинала.
* В связи с тем, что оригинальная дорога на BD убогое моно, из старого DVD - в котором присутствовал полноценный 4-х канальный звук, взяты как дорога Михалева, так и английская. Для тех, кому частоты важнее панорамы - Михалев сведен с чистого голоса на родной моно DTS-HD MA.
За дорожку Ren-TV спасибо JUSTKANT и RockNIK. Почищена от шума в izotope.
За дорожку Володарского спасибо JIuI3epIIyJIb.
Скачать

Скачать торрент!

Как скачивать? · Что такое торрент? · Рейтинг и ограничения

Сайт не распространяет и не хранит электронные версии произведений, а лишь предоставляет доступ к создаваемому пользователями каталогу ссылок на торрент-файлы, которые содержат только списки хеш-сумм

[Профиль] [ЛС]
Показать сообщения:    
Ответить на тему

Текущее время: Сегодня 04:03

Часовой пояс: GMT + 4



Вы не можете начинать темы
Вы не можете отвечать на сообщения
Вы не можете редактировать свои сообщения
Вы не можете удалять свои сообщения
Вы не можете голосовать в опросах
Вы не можете прикреплять файлы к сообщениям
Вы не можете скачивать файлы