Исходный код / Source Code (Дункан Джонс / Duncan Jones) [2011, США, Канада, фантастика, боевик, триллер, BDRip 720p] Dub + AVO (Гаврилов) + 2x VO (Дасевич, Zamez) + Ukr (MVO) + Sub Rus, Eng + Original Eng

Ответить на тему
 
Автор Сообщение

user ®

Стаж: 7 лет 7 месяцев

Сообщений: 20008

Пост Пост: #1 от 15-Июн-2015 00:12

[Цитировать]

Исходный код / Source Code
Страна: США, Канада
Жанр: фантастика, боевик, триллер
Год выпуска: 2011
Продолжительность: 01:33:13
Перевод 1: Профессиональный (дублированный)
Перевод 2: Авторский (одноголосый закадровый) Гаврилов
Перевод 3: Одноголосый (закадровый) Дасевич
Перевод 4: Одноголосый (закадровый) Zamez
Оригинальная аудиодорожка: Английский
Cубтитры: Русские (Voronine + Voronine SDH), Английские (Full + SDH)
Формат субтитров: softsub (SRT)--Режиссер: Дункан Джонс / Duncan Jones--В ролях: Джейк Джилленхол, Мишель Монахэн, Вера Фармига, Джеффри Райт, Расселл Питерс, Джеймс А. Вудс, Майкл Арден, Кас Анвар, Джо Кобден, Брент Скэгфорд, Крэйг Томас, Гордон Мастен, Сьюзэн Бэйн, Паула Жан Хиксон, Линкольн Уорд, Кайл Гейтхаус, Альберт Кван, Энн Дэй-Джонс, Клариса Бирн, Мэтт Холлэнд, Фредерик Де Гранпре, Скотт Бакула, Лаура Этвуд, Райнальд Лапьер, Сэмюэл Медоуз...--Описание: Солдат по имени Коултер мистическим образом оказывается в теле неизвестного мужчины, погибшего в железнодорожной катастрофе. Коултер вынужден переживать чужую смерть снова и снова до тех пор, пока не поймет, кто — зачинщик катастрофы.--Доп. информация: Kinopoisk | IMDB | Sample | --Качество видео: [url=http://***/forum/viewtopic.php?t=5020631]BDRip[/url] 720p
Формат видео: MKV
Видео: MPEG4/ISO/AVC, 1280x720 (16:9), 8 488 Kbps, 23.976 fps, 0.384 bit/pixel.
Аудио 1: AC3, 3/2 (L,C,R,l,r) + LFE ch, 48 kHz, 640 kbps |Дубляж|
Аудио 2: DTS, 5.1, 48 kHz, 1509 kbps, 24-bit |AVO Гаврилов|
Аудио 3: DTS, 5.1, 48 kHz, 1509 kbps, 24-bit |VO Дасевич|
Аудио 4: DTS, 5.1, 48 kHz, 1509 kbps, 24-bit |VO Zamez|
Аудио 5: AC3, 2/0 (L,R) ch, 48 kHz, 192 kbps |MVO 1+1|
Аудио 6: DTS, 5.1, 48 kHz, 1509 kbps, 24-bit |Original|
Аудио 7: AC3, 2/0 (L,R) ch, 48 kHz, 192 kbps |Commentary with Director Duncan Jones, Actor Jake Gyllenhaal, and Writer Ben Ripley|
Аудио 8: DTS, 5.1, 48 kHz, 1509 kbps, 24-bit. Украинский Дубляж
Аудио 8: DTS, 5.1, 48 kHz, 1509 kbps, 24-bit |Дубляж|
Скриншоты MediaInfo/x264
x264
raw [info]: 1280x720p 1:1 @ 24000/1001 fps (cfr)
x264 [info]: using SAR=1/1
x264 [info]: using cpu capabilities: MMX2 SSE2Fast SSSE3 SSE4.2 AVX
x264 [info]: profile High, level 4.1
x264 [info]: frame I:1161 Avg QP:13.06 size:197714
x264 [info]: frame P:27065 Avg QP:16.53 size: 78075
x264 [info]: frame B:105861 Avg QP:19.32 size: 35047
x264 [info]: consecutive B-frames: 1.8% 2.0% 4.0% 18.7% 20.3% 33.3% 8.3% 9.3% 1.1%
x264 [info]: mb I I16..4: 12.3% 64.6% 23.1%
x264 [info]: mb P I16..4: 1.6% 17.4% 1.4% P16..4: 33.1% 19.5% 16.2% 1.2% 0.4% skip: 9.1%
x264 [info]: mb B I16..4: 0.1% 4.3% 0.1% B16..8: 40.5% 13.1% 5.0% direct: 8.6% skip:28.3% L0:43.1% L1:41.4% BI:15.4%
x264 [info]: 8x8 transform intra:87.3% inter:58.7%
x264 [info]: coded y,uvDC,uvAC intra: 91.8% 88.7% 77.8% inter: 38.6% 27.5% 9.3%
x264 [info]: i16 v,h,dc,p: 39% 14% 16% 32%
x264 [info]: i8 v,h,dc,ddl,ddr,vr,hd,vl,hu: 9% 9% 15% 9% 12% 11% 12% 10% 12%
x264 [info]: i4 v,h,dc,ddl,ddr,vr,hd,vl,hu: 9% 9% 8% 10% 15% 12% 13% 11% 13%
x264 [info]: i8c dc,h,v,p: 52% 17% 13% 17%
x264 [info]: Weighted P-Frames: Y:7.4% UV:3.8%
x264 [info]: ref P L0: 44.2% 8.7% 18.1% 8.3% 6.4% 4.8% 4.3% 2.5% 2.4% 0.3% 0.0%
x264 [info]: ref B L0: 72.7% 12.0% 6.2% 3.2% 2.5% 2.1% 1.0% 0.3%
x264 [info]: ref B L1: 92.0% 8.0%
x264 [info]: kb/s:8658.29
General
Unique ID : 174884154211188205797469801875693989909 (0x839176833294D082ADC1D21C78017015)
Complete name : Source Code (2011).mkv
Format : Matroska
Format version : Version 4 / Version 2
File size : 10.2 GiB
Duration : 1h 33mn
Overall bit rate : 15.7 Mbps
Movie name : Исходный код / Source Code (2011)
Encoded date : UTC 2015-06-13 13:00:42
Writing application : mkvmerge v7.8.0 ('River Man') 64bit built on Mar 27 2015 16:31:37
Writing library : libebml v1.3.1 + libmatroska v1.4.2
Attachements : cover.jpg
DURATION : 01:24:20.417000000
NUMBER_OF_FRAMES : 1227
NUMBER_OF_BYTES : 41372
_STATISTICS_WRITING_APP : mkvmerge v7.8.0 ('River Man') 64bit built on Mar 27 2015 16:31:37
_STATISTICS_WRITING_DATE_UT : 2015-06-13 13:00:42
_STATISTICS_TAGS : BPS DURATION NUMBER_OF_FRAMES NUMBER_OF_BYTES
Video
ID : 1
Format : AVC
Format/Info : Advanced Video Codec
Format profile : High@L4.1
Format settings, CABAC : Yes
Format settings, ReFrames : 9 frames
Codec ID : V_MPEG4/ISO/AVC
Duration : 1h 33mn
Bit rate : 8 350 Kbps
Width : 1 280 pixels
Height : 720 pixels
Display aspect ratio : 16:9
Frame rate mode : Constant
Frame rate : 23.976 fps
Color space : YUV
Chroma subsampling : 4:2:0
Bit depth : 8 bits
Scan type : Progressive
Bits/(Pixel*Frame) : 0.378
Stream size : 5.44 GiB (53%)
Title : By optik.1557
Writing library : x264 core 146 r2538kMod 121396c
Encoding settings : cabac=1 / ref=9 / deblock=1:-3:-2 / analyse=0x3:0x133 / me=umh / subme=10 / psy=1 / fade_compensate=0.00 / psy_rd=1.05:0.03 / mixed_ref=1 / me_range=32 / chroma_me=1 / trellis=2 / 8x8dct=1 / cqm=0 / deadzone=21,11 / fast_pskip=0 / chroma_qp_offset=-3 / threads=6 / lookahead_threads=1 / sliced_threads=0 / nr=0 / decimate=1 / interlaced=0 / bluray_compat=0 / constrained_intra=0 / fgo=0 / bframes=8 / b_pyramid=2 / b_adapt=2 / b_bias=0 / direct=1 / weightb=1 / open_gop=0 / weightp=2 / keyint=250 / keyint_min=23 / scenecut=40 / intra_refresh=0 / rc_lookahead=60 / rc=crf / mbtree=1 / crf=15.4000 / qcomp=0.60 / qpmin=0 / qpmax=69 / qpstep=4 / vbv_maxrate=50000 / vbv_bufsize=62500 / crf_max=0.0 / nal_hrd=none / filler=0 / ip_ratio=1.40 / aq=2:0.90
Language : English
Default : Yes
Forced : No
DURATION : 01:33:12.546000000
NUMBER_OF_FRAMES : 134087
NUMBER_OF_BYTES : 6052738446
_STATISTICS_WRITING_APP : mkvmerge v7.8.0 ('River Man') 64bit built on Mar 27 2015 16:31:37
_STATISTICS_WRITING_DATE_UT : 2015-06-13 13:00:42
_STATISTICS_TAGS : BPS DURATION NUMBER_OF_FRAMES NUMBER_OF_BYTES
Audio #1
ID : 2
Format : AC-3
Format/Info : Audio Coding 3
Mode extension : CM (complete main)
Format settings, Endianness : Big
Codec ID : A_AC3
Duration : 1h 33mn
Bit rate mode : Constant
Bit rate : 640 Kbps
Channel(s) : 6 channels
Channel positions : Front: L C R, Side: L R, LFE
Sampling rate : 48.0 KHz
Bit depth : 16 bits
Compression mode : Lossy
Stream size : 427 MiB (4%)
Title : Дубляж
Language : Russian
Default : Yes
Forced : No
Audio #2
ID : 3
Format : DTS
Format/Info : Digital Theater Systems
Mode : 16
Format settings, Endianness : Big
Codec ID : A_DTS
Duration : 1h 33mn
Bit rate mode : Constant
Bit rate : 1 509 Kbps
Channel(s) : 6 channels
Channel positions : Front: L C R, Side: L R, LFE
Sampling rate : 48.0 KHz
Bit depth : 24 bits
Compression mode : Lossy
Stream size : 1 006 MiB (10%)
Title : AVO. Гаврилов
Language : Russian
Default : No
Forced : No
Audio #3
ID : 4
Format : DTS
Format/Info : Digital Theater Systems
Mode : 16
Format settings, Endianness : Big
Codec ID : A_DTS
Duration : 1h 33mn
Bit rate mode : Constant
Bit rate : 1 509 Kbps
Channel(s) : 6 channels
Channel positions : Front: L C R, Side: L R, LFE
Sampling rate : 48.0 KHz
Bit depth : 24 bits
Compression mode : Lossy
Stream size : 1 006 MiB (10%)
Title : VO. Дасевич
Language : Russian
Default : No
Forced : No
Audio #4
ID : 5
Format : DTS
Format/Info : Digital Theater Systems
Mode : 16
Format settings, Endianness : Big
Codec ID : A_DTS
Duration : 1h 33mn
Bit rate mode : Constant
Bit rate : 1 509 Kbps
Channel(s) : 6 channels
Channel positions : Front: L C R, Side: L R, LFE
Sampling rate : 48.0 KHz
Bit depth : 24 bits
Compression mode : Lossy
Stream size : 1 006 MiB (10%)
Title : VO. Zamez
Language : Russian
Default : No
Forced : No
Audio #5
ID : 6
Format : AC-3
Format/Info : Audio Coding 3
Mode extension : CM (complete main)
Format settings, Endianness : Big
Codec ID : A_AC3
Duration : 1h 33mn
Bit rate mode : Constant
Bit rate : 192 Kbps
Channel(s) : 2 channels
Channel positions : Front: L R
Sampling rate : 48.0 KHz
Bit depth : 16 bits
Compression mode : Lossy
Stream size : 128 MiB (1%)
Title : MVO. 1+1
Language : Ukrainian
Default : No
Forced : No
Audio #6
ID : 7
Format : DTS
Format/Info : Digital Theater Systems
Mode : 16
Format settings, Endianness : Big
Codec ID : A_DTS
Duration : 1h 33mn
Bit rate mode : Constant
Bit rate : 1 509 Kbps
Channel(s) : 6 channels
Channel positions : Front: L C R, Side: L R, LFE
Sampling rate : 48.0 KHz
Bit depth : 24 bits
Compression mode : Lossy
Stream size : 1 006 MiB (10%)
Title : Original
Language : English
Default : No
Forced : No
Audio #7
ID : 8
Format : AC-3
Format/Info : Audio Coding 3
Format profile : Dolby Digital
Mode extension : CM (complete main)
Format settings, Endianness : Big
Codec ID : A_AC3
Duration : 1h 33mn
Bit rate mode : Constant
Bit rate : 192 Kbps
Channel(s) : 2 channels
Channel positions : Front: L R
Sampling rate : 48.0 KHz
Bit depth : 16 bits
Compression mode : Lossy
Stream size : 128 MiB (1%)
Title : Commentary with Director Duncan Jones, Actor Jake Gyllenhaal, and Writer Ben Ripley
Language : English
Default : No
Forced : No
Text #1
ID : 9
Format : UTF-8
Codec ID : S_TEXT/UTF8
Codec ID/Info : UTF-8 Plain Text
Title : Voronine
Language : Russian
Default : No
Forced : No
Text #2
ID : 10
Format : UTF-8
Codec ID : S_TEXT/UTF8
Codec ID/Info : UTF-8 Plain Text
Title : Voronine, SDH
Language : Russian
Default : No
Forced : No
Text #3
ID : 11
Format : UTF-8
Codec ID : S_TEXT/UTF8
Codec ID/Info : UTF-8 Plain Text
Title : Full
Language : English
Default : No
Forced : No
Text #4
ID : 12
Format : UTF-8
Codec ID : S_TEXT/UTF8
Codec ID/Info : UTF-8 Plain Text
Title : SDH
Language : English
Default : No
Forced : No
Menu
00:00:00.000 : :Chapter 01
00:06:52.870 : :Chapter 02
00:11:03.663 : :Chapter 03
00:17:20.038 : :Chapter 04
00:21:06.556 : :Chapter 05
00:28:36.797 : :Chapter 06
00:31:50.364 : :Chapter 07
00:36:19.885 : :Chapter 08
00:41:35.742 : :Chapter 09
00:47:21.838 : :Chapter 10
00:52:30.188 : :Chapter 11
00:54:32.101 : :Chapter 12
00:58:01.226 : :Chapter 13
01:03:02.320 : :Chapter 14
01:09:39.550 : :Chapter 15
01:15:12.046 : :Chapter 16
01:21:49.654 : :Chapter 17
01:24:41.117 : :Chapter 18
01:33:12.336 : :Chapter 19
Скачать

Скачать торрент!

Как скачивать? · Что такое торрент? · Рейтинг и ограничения

Сайт не распространяет и не хранит электронные версии произведений, а лишь предоставляет доступ к создаваемому пользователями каталогу ссылок на торрент-файлы, которые содержат только списки хеш-сумм

[Профиль] [ЛС]
Показать сообщения:    
Ответить на тему

Текущее время: Сегодня 10:07

Часовой пояс: GMT + 4



Вы не можете начинать темы
Вы не можете отвечать на сообщения
Вы не можете редактировать свои сообщения
Вы не можете удалять свои сообщения
Вы не можете голосовать в опросах
Вы не можете прикреплять файлы к сообщениям
Вы не можете скачивать файлы