Помощница на праздники / Help for the Holidays (Брэдфорд Мэй / Bradford May) [2012, США, фэнтези, семейный, HDTV 1080i] MVO

Ответить на тему
 
Автор Сообщение

user ®

Стаж: 7 лет 7 месяцев

Сообщений: 20008

Пост Пост: #1 от 15-Июн-2015 00:12

[Цитировать]

Помощница на праздники / Help for the Holidays Страна: США
Жанр: фэнтези, семейный
Год выпуска: 2012
Продолжительность: 01:22:30
Перевод: Профессиональный (многоголосый закадровый)
Cубтитры: нет
Режиссер: Брэдфорд Мэй / Bradford May
В ролях: Саммер Глау, Ева ЛаРю Каллахан, Джон Бразертон, Дэн Готье, Изабела Видович, Мэйсон Кук, Стив Ларкин, Джесси Ланде, Вэлори Хаббард, Jerome V. Green
Описание: Сара Ван Кэмп — очень занятая мама двоих детей, утратившая дух Рождества. А Кристина, эльф из деревни Санта-Клауса, считает, что нет большего счастья, чем делать игрушки на Северном полюсе. Она отправляется в реальный мир, чтобы помочь семье Ван Кэмп, маме Сара, папе Скотту и их двум детям, заново постичь рождественский дух.
Сэмпл: http://rusfolder.com/43806254
Кинопоиск: http://www.kinopoisk.ru/film/704830/
Тип релиза: HDTV 1080i
Контейнер: TS
Видео: AVC/H.264, 1920x1080 (16:9), 5565 Кбит/сек, 25.000 fps
Аудио: русский, MP2, 2ch, 48,0 КГц, 192 Кбит/сек
MediaInfo
Общее
Идентификатор : 1 (0x1)
Полное имя : C:\Users\Admin\Desktop\Помошница на праздники.ts
Формат : MPEG-TS
Размер файла : 3,49 Гбайт
Продолжительность : 1 ч. 22 м.
Режим общего битрейта : Переменный
Общий поток : 6058 Кбит/сек
Максимальный общий битрейт : 35,5 Мбит/сек
Видео
Идентификатор : 4113 (0x1011)
Идентификатор меню : 1 (0x1)
Формат : AVC
Формат/Информация : Advanced Video Codec
Профиль формата : Main@L4.0
Параметр CABAC формата : Да
Параметр ReFrames формата : 3 кадра
Параметр GOP формата : M=4, N=32
Идентификатор кодека : 27
Продолжительность : 1 ч. 22 м.
Вид битрейта : Переменный
Битрейт : 5565 Кбит/сек
Максимальный битрейт : 40,0 Мбит/сек
Ширина : 1920 пикселей
Высота : 1080 пикселей
Соотношение сторон : 16:9
Частота кадров : 25,000 кадров/сек
Стандарт вещания : Component
Цветовое пространство : YUV
Субдискретизация насыщенности : 4:2:0
Битовая глубина : 8 бит
Тип развёртки : Чересстрочная
Порядок развёртки : Верхнее поле первое
Бит/(Пиксели*Кадры) : 0.107
Размер потока : 3,21 Гбайт (92%)
colour_range : Limited
Аудио
Идентификатор : 4352 (0x1100)
Идентификатор меню : 1 (0x1)
Формат : MPEG Audio
Версия формата : Version 1
Профиль формата : Layer 2
Идентификатор кодека : 4
Продолжительность : 1 ч. 22 м.
Вид битрейта : Постоянный
Битрейт : 192 Кбит/сек
Каналы : 2 канала
Частота : 48,0 КГц
Метод сжатия : С потерями
Размер потока : 113 Мбайт (3%)
Язык : Russian
Скриншот с названием фильма Скриншоты
Скачать

Скачать торрент!

Как скачивать? · Что такое торрент? · Рейтинг и ограничения

Сайт не распространяет и не хранит электронные версии произведений, а лишь предоставляет доступ к создаваемому пользователями каталогу ссылок на торрент-файлы, которые содержат только списки хеш-сумм

[Профиль] [ЛС]
Показать сообщения:    
Ответить на тему

Текущее время: Сегодня 18:41

Часовой пояс: GMT + 4



Вы не можете начинать темы
Вы не можете отвечать на сообщения
Вы не можете редактировать свои сообщения
Вы не можете удалять свои сообщения
Вы не можете голосовать в опросах
Вы не можете прикреплять файлы к сообщениям
Вы не можете скачивать файлы