Судья / The Judge (Дэвид Добкин / David Dobkin) [2014, США, драма, BDRip 1080p] Dub + AVO (Сербин) + Sub Rus, Ukr, Eng + Original Eng

Ответить на тему
 
Автор Сообщение

user ®

Стаж: 7 лет 7 месяцев

Сообщений: 20008

Пост Пост: #1 от 15-Июн-2015 00:12

[Цитировать]

Судья / The Judge Страна: США
Студия: Warner Bros.
Жанр: драма
Год выпуска: 2014
Продолжительность: 02:21:32
Перевод 1: Профессиональный (дублированный) Blu-ray CEE
Перевод 2: Авторский (одноголосый закадровый) Сербин
Cубтитры: русские (forced, full), украинские (forced, full), английские (full, SDH, SDH-COLORED)
Оригинальная аудиодорожка: английский
Режиссер: Дэвид Добкин / David Dobkin
В ролях: Роберт Дауни мл., Роберт Дювалл, Вера Фармига, Билли Боб Торнтон, Винсент Д’Онофрио, Джереми Стронг, Дэкс Шепард, Лейтон Мистер, Кен Ховард, Эмма Трамбле
Описание: В центре истории — успешный адвокат, который приезжает в родной город на похороны матери и узнаёт, что его отца, городского судью, подозревают в убийстве. Герой решает задержаться, чтобы выяснить правду, и постепенно лучше узнаёт родственников, с которыми давно вообще никак не общался.

Тип релиза: BDRip 1080p [EbP]
Контейнер: MKV
Видео: AVC, 1920x800, 14700Kbps, 23.976 fps
Аудио 1: Russian: 48 kHz, AC3, 3/2 (L,C,R,l,r) + LFE ch, ~448.00 kbps avg |Blu-ray CEE|
Аудио 2: Ukrainian: 48 kHz, AC3, 2/0 (L,R) ch, ~192.00 kbps avg |iTunes|
Аудио 3: Russian: 48 kHz, DTS, 3/2 (L,C,R,l,r) + LFE ch, ~1536.00 kbps avg |Сербин|
Аудио 4: English: 48 kHz, DTS, 3/2 (L,C,R,l,r) + LFE ch, ~1536.00 kbps avg |Original|
Аудио 5: English: 48 kHz, AC3, 2/0 (L,R) ch, ~192.00 kbps avg |Commentary by David Dobkin|
Чаптеры: есть

x264 log
x264 [info]: frame I:1647 Avg QP:16.78 size:203819
x264 [info]: frame P:37547 Avg QP:18.62 size:112394
x264 [info]: frame B:164401 Avg QP:19.83 size: 68792
x264 [info]: consecutive B-frames: 1.3% 1.0% 2.8% 16.2% 16.8% 30.6% 11.1% 15.1% 3.5% 1.7%
Доп.информация
За перевод Ю. Сербина большое спасибо пользователям форумов
hdtracker:
Sonny Black, Gross1978, marlboro-man, KpucTo161, _MyxAmoP_, kondratzx, Role, Tagansky, morov
и Е-180:
Luka69, denis_mgn_1987, Skoped, chontvari, Эдуард, Nadoelo, пуля, uchitel538, vik19662007, urassiks, xerman13
MediaInfo
General
Unique ID : 230844161868158742371983304467630748593 (0xADAAF7E7F0D9D2699C63CEE932DB73B1)
Complete name : D:\\The.Judge.2014.1080p.BluRay.DTS.x264-Talian-.mkv
Format : Matroska
Format version : Version 2
File size : 18.6 GiB
Duration : 2h 21mn
Overall bit rate : 18.8 Mbps
Movie name : The Judge -Talian-
Encoded date : UTC 2015-06-13 15:11:45
Writing application : mkvmerge v5.7.0 ('The Whirlwind') built on Jul 8 2012 20:08:51
Writing library : libebml v1.2.3 + libmatroska v1.3.0
Video
ID : 1
Format : AVC
Format/Info : Advanced Video Codec
Format profile : High@L4.1
Format settings, CABAC : Yes
Format settings, ReFrames : 5 frames
Codec ID : V_MPEG4/ISO/AVC
Duration : 2h 21mn
Bit rate : 14.6 Mbps
Width : 1 920 pixels
Height : 800 pixels
Display aspect ratio : 2.40:1
Frame rate : 23.976 fps
Color space : YUV
Chroma subsampling : 4:2:0
Bit depth : 8 bits
Scan type : Progressive
Bits/(Pixel*Frame) : 0.396
Stream size : 14.4 GiB (78%)
Title : EbP
Writing library : x264 core 144 r2525kMod 40bb568
Encoding settings : cabac=1 / ref=5 / deblock=1:-3:-3 / analyse=0x3:0x133 / me=umh / subme=10 / psy=1 / fade_compensate=0.00 / psy_rd=1.10:0.00 / mixed_ref=1 / me_range=16 / chroma_me=1 / trellis=2 / 8x8dct=1 / cqm=0 / deadzone=21,11 / fast_pskip=0 / chroma_qp_offset=-2 / threads=12 / lookahead_threads=2 / sliced_threads=0 / nr=0 / decimate=0 / interlaced=0 / bluray_compat=0 / constrained_intra=0 / fgo=0 / bframes=9 / b_pyramid=2 / b_adapt=2 / b_bias=0 / direct=3 / weightb=1 / open_gop=0 / weightp=2 / keyint=250 / keyint_min=23 / scenecut=40 / intra_refresh=0 / rc=crf / mbtree=0 / crf=18.0000 / qcomp=0.60 / qpmin=0 / qpmax=69 / qpstep=4 / ip_ratio=1.30 / pb_ratio=1.15 / aq=3:0.65 / zones=193753,203594,crf=25
Language : English
Default : Yes
Forced : No
Audio #1
ID : 2
Format : AC-3
Format/Info : Audio Coding 3
Mode extension : CM (complete main)
Format settings, Endianness : Big
Codec ID : A_AC3
Duration : 2h 21mn
Bit rate mode : Constant
Bit rate : 448 Kbps
Channel(s) : 6 channels
Channel positions : Front: L C R, Side: L R, LFE
Sampling rate : 48.0 KHz
Bit depth : 16 bits
Compression mode : Lossy
Stream size : 454 MiB (2%)
Title : DUB-Blu-ray CEE
Language : Russian
Default : Yes
Forced : No
Audio #2
ID : 3
Format : AC-3
Format/Info : Audio Coding 3
Mode extension : CM (complete main)
Format settings, Endianness : Big
Codec ID : A_AC3
Duration : 2h 21mn
Bit rate mode : Constant
Bit rate : 192 Kbps
Channel(s) : 2 channels
Channel positions : Front: L R
Sampling rate : 48.0 KHz
Bit depth : 16 bits
Compression mode : Lossy
Stream size : 194 MiB (1%)
Title : DUB-iTunes
Language : Ukrainian
Default : No
Forced : No
Audio #3
ID : 4
Format : DTS
Format/Info : Digital Theater Systems
Codec ID : A_DTS
Duration : 2h 21mn
Bit rate mode : Constant
Bit rate : 1 510 Kbps
Channel(s) : 6 channels
Channel positions : Front: L C R, Side: L R, LFE
Sampling rate : 48.0 KHz
Bit depth : 16 bits
Compression mode : Lossy
Stream size : 1.49 GiB (8%)
Title : AVO-Сербин
Language : Russian
Default : No
Forced : No
Audio #4
ID : 5
Format : DTS
Format/Info : Digital Theater Systems
Codec ID : A_DTS
Duration : 2h 21mn
Bit rate mode : Constant
Bit rate : 1 510 Kbps
Channel(s) : 6 channels
Channel positions : Front: L C R, Side: L R, LFE
Sampling rate : 48.0 KHz
Bit depth : 16 bits
Compression mode : Lossy
Stream size : 1.49 GiB (8%)
Title : Original
Language : English
Default : No
Forced : No
Audio #5
ID : 6
Format : AC-3
Format/Info : Audio Coding 3
Format profile : Dolby Digital
Mode extension : CM (complete main)
Format settings, Endianness : Big
Codec ID : A_AC3
Duration : 2h 21mn
Bit rate mode : Constant
Bit rate : 192 Kbps
Channel(s) : 2 channels
Channel positions : Front: L R
Sampling rate : 48.0 KHz
Bit depth : 16 bits
Compression mode : Lossy
Stream size : 194 MiB (1%)
Title : Commentary by David Dobkin
Language : English
Default : No
Forced : No
Text #1
ID : 7
Format : UTF-8
Codec ID : S_TEXT/UTF8
Codec ID/Info : UTF-8 Plain Text
Title : Sub-forced
Language : Russian
Default : Yes
Forced : No
Text #2
ID : 8
Format : UTF-8
Codec ID : S_TEXT/UTF8
Codec ID/Info : UTF-8 Plain Text
Title : Sub-full
Language : Russian
Default : No
Forced : No
Text #3
ID : 9
Format : UTF-8
Codec ID : S_TEXT/UTF8
Codec ID/Info : UTF-8 Plain Text
Title : Sub-forced
Language : Ukrainian
Default : No
Forced : No
Text #4
ID : 10
Format : UTF-8
Codec ID : S_TEXT/UTF8
Codec ID/Info : UTF-8 Plain Text
Title : Sub-full
Language : Ukrainian
Default : No
Forced : No
Text #5
ID : 11
Format : UTF-8
Codec ID : S_TEXT/UTF8
Codec ID/Info : UTF-8 Plain Text
Title : Sub-full
Language : English
Default : No
Forced : No
Text #6
ID : 12
Format : UTF-8
Codec ID : S_TEXT/UTF8
Codec ID/Info : UTF-8 Plain Text
Title : Sub-SDH
Language : English
Default : No
Forced : No
Text #7
ID : 13
Format : UTF-8
Codec ID : S_TEXT/UTF8
Codec ID/Info : UTF-8 Plain Text
Title : Sub-SDH-COLORED
Language : English
Default : No
Forced : No
Menu
00:00:00.000 : en:00:00:00.000
00:11:59.218 : en:00:11:59.218
00:20:47.121 : en:00:20:47.121
00:31:22.547 : en:00:31:22.547
00:41:06.381 : en:00:41:06.381
00:50:42.623 : en:00:50:42.623
00:59:44.498 : en:00:59:44.498
01:09:25.453 : en:01:09:25.453
01:20:00.754 : en:01:20:00.754
01:28:33.767 : en:01:28:33.767
01:40:18.971 : en:01:40:18.971
01:51:38.942 : en:01:51:38.942
02:01:30.325 : en:02:01:30.325
02:10:55.681 : en:02:10:55.681
02:14:45.077 : en:02:14:45.077
Скриншоты
Source vs Encode


Скачать

Скачать торрент!

Как скачивать? · Что такое торрент? · Рейтинг и ограничения

Сайт не распространяет и не хранит электронные версии произведений, а лишь предоставляет доступ к создаваемому пользователями каталогу ссылок на торрент-файлы, которые содержат только списки хеш-сумм

[Профиль] [ЛС]
Показать сообщения:    
Ответить на тему

Текущее время: Сегодня 07:54

Часовой пояс: GMT + 4



Вы не можете начинать темы
Вы не можете отвечать на сообщения
Вы не можете редактировать свои сообщения
Вы не можете удалять свои сообщения
Вы не можете голосовать в опросах
Вы не можете прикреплять файлы к сообщениям
Вы не можете скачивать файлы