Лига Справедливости: В ловушке времени / JLA Adventures: Trapped in Time (Джанкарло Волп / Giancarlo Volpe) [2014, мультфильм, фантастика, боевик, WEB-DLRip] DVO + MVO + Original Eng + sub (eng)

Ответить на тему
 
Автор Сообщение

user ®

Стаж: 13 лет

Сообщений: 15041

Пост Пост: #1 от 14-Июн-2015 11:48

[Цитировать]

Лига Справедливости: В ловушке времени
JLA Adventures: Trapped in Time
Страна: США
Жанр: мультфильм, фантастика, боевик, приключения
Продолжительность: 00:52:35
Год выпуска: 2014-Перевод: Профессиональный (Двухголосый закадровый)
Перевод: Любительский (Многоголосый закадровый) SkyeFilmTV
Русские субтитры: нет
Режиссёр: Джанкарло Волп / Giancarlo Volpe-Роли озвучивали: Дидрих Бадер, Лора Бэйли, Данте Баско, Кори Бертон, Грэй ДеЛисл, Джек Де Сена, Майкл Донован, Том Джибис, Питер Джессоп, Эрика Латтрелл-Описание: Лига Справедливости в опасности! Самый опасный враг Лиги, Лекс Лютер, криминальный гений, изобрёл способ манипулировать прошлым и настоящим. Он хочет изменить прошлое и уничтожить Лигу Справедливости ещё на этапе её формирования.-Релиз: | | -• Работа со звуком [url=http://***/forum/profile.php?mode=viewprofile&u=1793838]xfiles[/url]
• Работа с WEB-DL [url=http://***/forum/profile.php?mode=viewprofile&u=6758562]-Azureus-[/url]-Качество: [url=http://***/forum/viewtopic.php?t=4932834]WEB-DLRip[/url]
Формат: AVI
Видео: 720x400 (1.80:1), 23,976 fps, XviD 66 ~2 381 kbps avg, 0.34 bit/pixel
Аудио: 48 kHz, AC3 Dolby Digital, 2/0 (L,R) ch, ~192 kbps |DVO|
Аудио: 48 kHz, AC3 Dolby Digital, 2/0 (L,R) ch, ~192 kbps |MVO|
Аудио: 48 kHz, AC3 Dolby Digital, 2/0 (L,R) ch, ~192 kbps |ENG|
Субтитры: English (full) [srt]

MI

General
Complete name : D:\JLA.Adventures.Trapped.in.Time.2014.WEB-DLRip\JLA.Adventures.Trapped.in.Time.2014.WEB-DLRip.avi
Format : AVI
Format/Info : Audio Video Interleave
File size : 1.09 GiB
Duration : 52mn 35s
Overall bit rate : 2 976 Kbps
Writing application : VirtualDubMod 1.5.10.2 (build 2540/release)
Writing library : VirtualDubMod build 2540/release
Video
ID : 0
Format : MPEG-4 Visual
Format profile : Advanced Simple@L5
Format settings, BVOP : 1
Format settings, QPel : No
Format settings, GMC : No warppoints
Format settings, Matrix : Custom
Codec ID : XVID
Codec ID/Hint : XviD
Duration : 52mn 35s
Bit rate : 2 381 Kbps
Width : 720 pixels
Height : 400 pixels
Display aspect ratio : 16:9
Frame rate : 23.976 fps
Color space : YUV
Chroma subsampling : 4:2:0
Bit depth : 8 bits
Scan type : Progressive
Compression mode : Lossy
Bits/(Pixel*Frame) : 0.345
Stream size : 895 MiB (80%)
Writing library : XviD 66
Audio #1
ID : 1
Format : AC-3
Format/Info : Audio Coding 3
Mode extension : CM (complete main)
Format settings, Endianness : Big
Codec ID : 2000
Duration : 52mn 35s
Bit rate mode : Constant
Bit rate : 192 Kbps
Channel(s) : 2 channels
Channel positions : Front: L R
Sampling rate : 48.0 KHz
Compression mode : Lossy
Stream size : 72.2 MiB (6%)
Alignment : Split accross interleaves
Interleave, duration : 42 ms (1.00 video frame)
Interleave, preload duratio : 500 ms
Audio #2
ID : 2
Format : AC-3
Format/Info : Audio Coding 3
Mode extension : CM (complete main)
Format settings, Endianness : Big
Codec ID : 2000
Duration : 52mn 35s
Bit rate mode : Constant
Bit rate : 192 Kbps
Channel(s) : 2 channels
Channel positions : Front: L R
Sampling rate : 48.0 KHz
Compression mode : Lossy
Stream size : 72.2 MiB (6%)
Alignment : Split accross interleaves
Interleave, duration : 42 ms (1.00 video frame)
Interleave, preload duratio : 500 ms
Audio #3
ID : 3
Format : AC-3
Format/Info : Audio Coding 3
Format profile : Dolby Digital
Mode extension : CM (complete main)
Format settings, Endianness : Big
Codec ID : 2000
Duration : 52mn 35s
Bit rate mode : Constant
Bit rate : 192 Kbps
Channel(s) : 2 channels
Channel positions : Front: L R
Sampling rate : 48.0 KHz
Compression mode : Lossy
Stream size : 72.2 MiB (6%)
Alignment : Split accross interleaves
Interleave, duration : 42 ms (1.00 video frame)
Interleave, preload duratio : 500 ms
Скриншоты
Скачать

Скачать торрент! Лига Справедливости: В ловушке времени / JLA Adventures: Trapped in Time (Джанкарло Волп / Giancarlo Volpe) [2014, мультфильм, фантастика, боевик, WEB-DLRip] DVO + MVO + Original Eng + sub (eng)

Как скачивать? · Что такое торрент? · Рейтинг и ограничения

Сайт не распространяет и не хранит электронные версии произведений, а лишь предоставляет доступ к создаваемому пользователями каталогу ссылок на торрент-файлы, которые содержат только списки хеш-сумм

[Профиль] [ЛС]
Показать сообщения:    
Ответить на тему

Текущее время: Сегодня 00:08

Часовой пояс: GMT + 4



Вы не можете начинать темы
Вы не можете отвечать на сообщения
Вы не можете редактировать свои сообщения
Вы не можете удалять свои сообщения
Вы не можете голосовать в опросах
Вы не можете прикреплять файлы к сообщениям
Вы не можете скачивать файлы