Исцеление / Снадобье / Cure / Kyua (Киёси Куросава / Kiyoshi Kurosawa) [1997, Япония, экзистенциальные ужасы, мистика, триллер, гипноз, DVDRip] VO (liosaa) + VO (Владимир Штейн) + Sub Rus

Ответить на тему
 
Автор Сообщение

user ®

Стаж: 13 лет

Сообщений: 15071

Пост Пост: #1 от 14-Июн-2015 02:27

[Цитировать]

Исцеление / Снадобье / Cure / Kyua
Страна: Япония
Жанр: экзистенциальные ужасы, мистика, триллер, гипноз
Год выпуска: 1997
Продолжительность: 01:51:19
Перевод 1: Одноголосый закадровый (liosaa)
Перевод 2: Одноголосый закадровый (Владимир Штейн)
Cубтитры: русские (liosaa), английские
Оригинальная аудиодорожка: японский
Режиссер: Киёси Куросава / Kiyoshi Kurosawa
В ролях: Кодзи Якусё, Масато Хагивара, Цуёши Удзики, Анна Накагава, Ёрико Доугути, Юкидзиро Хотару, Денден, Рен Осуги, Масахиро Тода, Мисаё Харуки
Описание: Инспектор Такабе совсем забегался... Дома больная жена -- участились провалы в памяти, и он для неё вроде няньки... На работе сущий ад -- цепь беспричинных убийств, все убийцы в миру люди тихие, ведут себя как заколдованные , во всём каются, а зачем убили, не знают... Да ещё этот странный тип на допросах нервы треплет -- похоже на полную амнезию (даже имя своё забыл), но какой-то он шибко наглый, будто страхов земных и не ведал вовсе...
Короче, надо срочно найти снадобье ото всех напастей, исцелить жену -- и забыть наконец, как страшный сон, всю эту чертовщину... А вот здесь, как в сказке про Дракона, либо-либо -- либо он тебя победит и съест, либо победишь ты, но драконово семя разъест изнутри твою душу... Третьего не дано!...
И в урочный час, в нехорошем месте, задребезжит из патефона глухое пророчество: "...Миг исцеления настал!.. Клинок, как снадобье в ладонях..."
Культовый фильм про гипноз, как вход в незримые пределы зла, и центральный в творчестве К. Куросавы, главного кино-мистика планеты... Здесь он с устрашающей неосознанностью (как во сне) запрягает трёх коней своей призрачной колесницы, имя коим Гипноз, Подсознание, Смерть...* (*синопсис от liosaa)

Доп. информация:....НОВЕЙШИЙ ПЕРЕВОД от liosaa!!....(фильм любимый, переводил долго, с попыткой расшифровать суть послания Куросавы... вроде получилось -- теперь всё кристально ясно и чисто...... довольно мутный перевод Штейна оставил, как дань эпохе)..... NTSC-рип сделан с DVD-9 от Home Vision (он отличается от PAL-рипов с французского издания, которые раздаются на трекере, охристой тёплой гаммой и меньшей контрастностью, позволяющей видеть больше деталей в тёмных сценах)...... 6-канальный звук взят с испанского блю-рэя... (он раздаётся [url=http://***/forum/viewtopic.php?t=5021871]**ЗДЕСЬ[/url])
**СЭМПЛ**
Качество видео: DVDRip
Формат видео: AVI
Видео: 720x400 (1.80:1), 23.976 fps, XviD MPEG-4 ~1657 kbps avg, 0.24 bit/pixel
Аудио 1: 48 kHz, AC3 Dolby Digital, 3/2 (L,C,R,l,r) + LFE ch, ~384.00 kbps avg (рус) liosaa
Аудио 2: 48 kHz, AC3 Dolby Digital, 2/0 (L,R) ch, ~192.00 kbps avg (рус) Штейн
Аудио 3: 48 kHz, AC3 Dolby Digital, 3/2 (L,C,R,l,r) + LFE ch, ~384.00 kbps avg (jap)
Формат субтитров: softsub (SRT)
MediaInfo
Формат : AVI
Формат/Информация : Audio Video Interleave
Профиль формата : OpenDML
Размер файла : 2,04 Гбайт
Продолжительность : 1 ч. 51 м.
Общий поток : 2625 Кбит/сек
Программа кодирования : VirtualDubMod 1.5.10.2 (build 2540/release)
Библиотека кодирования : VirtualDubMod build 2540/release
Видео
Идентификатор : 0
Формат : MPEG-4 Visual
Профиль формата : Advanced Simple@L5
Параметр BVOP формата : 2
Параметр QPel формата : Нет
Параметр GMC формата : Без точки перехода
Параметр матрицы формата : Default (H.263)
Режим смешивания : Сжатый битовый поток
Идентификатор кодека : XVID
Идентификатор кодека/Подсказка : XviD
Продолжительность : 1 ч. 51 м.
Битрейт : 1640 Кбит/сек
Ширина : 720 пикселей
Высота : 400 пикселей
Соотношение сторон : 16:9
Частота кадров : 23,976 кадра/сек
Цветовое пространство : YUV
Субдискретизация насыщенности : 4:2:0
Битовая глубина : 8 бит
Тип развёртки : Прогрессивная
Метод сжатия : С потерями
Бит/(Пиксели*Кадры) : 0.238
Размер потока : 1,28 Гбайт (62%)
Библиотека кодирования : XviD 1.2.1 (UTC 2008-12-04)
Аудио #1
Идентификатор : 1
Формат : AC-3
Формат/Информация : Audio Coding 3
Расширение режима : CM (complete main)
Параметр Endianness формата : Big
Идентификатор кодека : 2000
Продолжительность : 1 ч. 51 м.
Вид битрейта : Постоянный
Битрейт : 384 Кбит/сек
Каналы : 6 каналов
Расположение каналов : Front: L C R, Side: L R, LFE
Частота : 48,0 КГц
Битовая глубина : 16 бит
Метод сжатия : С потерями
Задержка видео : 1 с. 100 мс.
Размер потока : 306 Мбайт (15%)
Выравнивание : Разделение по промежуткам
Продолжительность промежутка : 42 мс. (1,00 видеокадр)
Время предзагрузки промежутка : 500 мс.
Аудио #2
Идентификатор : 2
Формат : AC-3
Формат/Информация : Audio Coding 3
Расширение режима : CM (complete main)
Параметр Endianness формата : Big
Идентификатор кодека : 2000
Продолжительность : 1 ч. 51 м.
Вид битрейта : Постоянный
Битрейт : 192 Кбит/сек
Каналы : 2 канала
Расположение каналов : Front: L R
Частота : 48,0 КГц
Битовая глубина : 16 бит
Метод сжатия : С потерями
Задержка видео : 1 с. 500 мс.
Размер потока : 153 Мбайт (7%)
Выравнивание : Разделение по промежуткам
Продолжительность промежутка : 42 мс. (1,00 видеокадр)
Время предзагрузки промежутка : 500 мс.
Аудио #3
Идентификатор : 3
Формат : AC-3
Формат/Информация : Audio Coding 3
Расширение режима : CM (complete main)
Параметр Endianness формата : Big
Идентификатор кодека : 2000
Продолжительность : 1 ч. 51 м.
Вид битрейта : Постоянный
Битрейт : 384 Кбит/сек
Каналы : 6 каналов
Расположение каналов : Front: L C R, Side: L R, LFE
Частота : 48,0 КГц
Битовая глубина : 16 бит
Метод сжатия : С потерями
Задержка видео : 1 с. 100 мс.
Размер потока : 306 Мбайт (15%)
Выравнивание : Разделение по промежуткам
Продолжительность промежутка : 42 мс. (1,00 видеокадр)
Время предзагрузки промежутка : 500 мс.
Скриншоты
Скачать

Скачать торрент! Исцеление / Снадобье / Cure / Kyua (Киёси Куросава / Kiyoshi Kurosawa) [1997, Япония, экзистенциальные ужасы, мистика, триллер, гипноз, DVDRip] VO (liosaa) + VO (Владимир Штейн) + Sub Rus

Как скачивать? · Что такое торрент? · Рейтинг и ограничения

Сайт не распространяет и не хранит электронные версии произведений, а лишь предоставляет доступ к создаваемому пользователями каталогу ссылок на торрент-файлы, которые содержат только списки хеш-сумм

[Профиль] [ЛС]
Показать сообщения:    
Ответить на тему

Текущее время: Сегодня 10:46

Часовой пояс: GMT + 4



Вы не можете начинать темы
Вы не можете отвечать на сообщения
Вы не можете редактировать свои сообщения
Вы не можете удалять свои сообщения
Вы не можете голосовать в опросах
Вы не можете прикреплять файлы к сообщениям
Вы не можете скачивать файлы