Поклонник / The Boy Next Door (Роб Коэн / Rob Cohen) [2015, Триллер, BDRip-AVC] Dub + Original (Eng) + Subs (Rus., Ukr., Eng.)

Ответить на тему
 
Автор Сообщение

user ®

Стаж: 7 лет 7 месяцев

Сообщений: 20008

Пост Пост: #1 от 14-Июн-2015 02:27

[Цитировать]

-Поклонник / The Boy Next Door- Год выпуска: 2015
Страна: США
Жанр: Триллер
Продолжительность: 01:30:33
Перевод: Профессиональный (полное дублирование) |Лицензия|
Русские субтитры: есть-Режиссер: Роб Коэн / Rob Cohen-В ролях: Дженнифер Лопез, Райан Гузман, Йен Нельсон, Джон Корбетт, Кристин Ченоуэт, Лекси Аткинс, Хилл Харпер, Джек Уоллес, Адам Хикс, Франсуа Чау-Описание: Фильм рассказывает об учительнице литературы Клэр Петерсон. Клэр знает о том, что муж изменяет ей, но тянет с разводом.
Однажды, в дом по соседству въезжает харизматичный 19-летний красавчик Ной, который начинает оказывать Клэр повышенное внимание. Поддавшись слабости, Клэр проводит с ним ночь. Но она и не подозревала, что в скором времени влечение Ноя к ней перерастет в опасную одержимость…
-Релиз от: -Автор рипа: potroks-Качество: BDRip-AVC [Blu-ray Disc | 1080p | HDCLUB]
Формат: MKV
Видео кодек: H.264
Аудио кодек: AC3
Видео: 1152x480 (2,40:1), 23,976 fps, 2550 Kbps, 0.192 bit/pixel
Аудио#1: 48 kHz, AC3 Dolby Digital, 3/2 (L,C,R,l,r) + LFE ch, 448.00 kbps | RUS
Аудио#2: 48 kHz, AC3 Dolby Digital, 3/2 (L,C,R,l,r) + LFE ch, 448.00 kbps | ENG
Субтитры: Русские (полные + форс.), украинские (полные + форс.), английские (Full + SDH + SDH-Colored)
- -MediaInfo
Poklonnik.2015.DUAL.BDRip-AVC.-HELLYWOOD.mkv
Format : Matroska
Format version : Version 4 / Version 2
File size : 2.18 GiB
Duration : 1h 30mn
Overall bit rate : 3 446 Kbps
Movie name : The Boy Next Door (2015) - HELLYWOOD
Encoded date : UTC 2015-06-11 05:29:49
Writing application : mkvmerge v5.9.0 ('On The Loose') built on Dec 15 2012 16:39:58
Writing library : libebml v1.3.0 + libmatroska v1.4.0
Video
ID : 1
Format : AVC
Format/Info : Advanced Video Codec
Format profile : High@L4.1
Format settings, CABAC : Yes
Format settings, ReFrames : 10 frames
Codec ID : V_MPEG4/ISO/AVC
Duration : 1h 30mn
Bit rate : 2 550 Kbps
Width : 1 152 pixels
Height : 480 pixels
Display aspect ratio : 2.40:1
Frame rate mode : Constant
Frame rate : 23.976 fps
Color space : YUV
Chroma subsampling : 4:2:0
Bit depth : 8 bits
Scan type : Progressive
Bits/(Pixel*Frame) : 0.192
Stream size : 1.57 GiB (72%)
Title : potroks
Writing library : x264 core 146 r2538 121396c
Encoding settings : cabac=1 / ref=10 / deblock=1:-3:-3 / analyse=0x3:0x113 / me=umh / subme=11 / psy=1 / psy_rd=0.96:0.00 / mixed_ref=1 / me_range=48 / chroma_me=1 / trellis=2 / 8x8dct=1 / cqm=0 / deadzone=21,11 / fast_pskip=0 / chroma_qp_offset=-2 / threads=9 / lookahead_threads=2 / sliced_threads=0 / nr=0 / decimate=0 / interlaced=0 / bluray_compat=0 / constrained_intra=0 / bframes=12 / b_pyramid=2 / b_adapt=2 / b_bias=0 / direct=3 / weightb=1 / open_gop=0 / weightp=2 / keyint=250 / keyint_min=23 / scenecut=40 / intra_refresh=0 / rc_lookahead=60 / rc=2pass / mbtree=0 / bitrate=2550 / ratetol=1.0 / qcomp=0.70 / qpmin=0 / qpmax=69 / qpstep=4 / cplxblur=20.0 / qblur=0.5 / vbv_maxrate=14000 / vbv_bufsize=14000 / nal_hrd=none / filler=0 / ip_ratio=1.35 / pb_ratio=1.25 / aq=1:0.80
Language : English
Default : Yes
Forced : No
Audio #1
ID : 2
Format : AC-3
Format/Info : Audio Coding 3
Mode extension : CM (complete main)
Format settings, Endianness : Big
Codec ID : A_AC3
Duration : 1h 30mn
Bit rate mode : Constant
Bit rate : 448 Kbps
Channel(s) : 6 channels
Channel positions : Front: L C R, Side: L R, LFE
Sampling rate : 48.0 KHz
Bit depth : 16 bits
Compression mode : Lossy
Stream size : 290 MiB (13%)
Title : Dub | DD 5.1 @ 448 kbps - Blu-Ray CEE
Language : Russian
Default : Yes
Forced : No
Audio #2
ID : 3
Format : AC-3
Format/Info : Audio Coding 3
Mode extension : CM (complete main)
Format settings, Endianness : Big
Codec ID : A_AC3
Duration : 1h 30mn
Bit rate mode : Constant
Bit rate : 448 Kbps
Channel(s) : 6 channels
Channel positions : Front: L C R, Side: L R, LFE
Sampling rate : 48.0 KHz
Bit depth : 16 bits
Compression mode : Lossy
Stream size : 290 MiB (13%)
Title : Original | DD 5.1 @ 448 kbps
Language : English
Default : No
Forced : No
Text #1
ID : 4
Format : UTF-8
Codec ID : S_TEXT/UTF8
Codec ID/Info : UTF-8 Plain Text
Title : Forced
Language : Russian
Default : Yes
Forced : No
Text #2
ID : 5
Format : UTF-8
Codec ID : S_TEXT/UTF8
Codec ID/Info : UTF-8 Plain Text
Title : Blu-Ray
Language : Russian
Default : No
Forced : No
Text #3
ID : 6
Format : UTF-8
Codec ID : S_TEXT/UTF8
Codec ID/Info : UTF-8 Plain Text
Title : Forced
Language : Ukrainian
Default : No
Forced : No
Text #4
ID : 7
Format : UTF-8
Codec ID : S_TEXT/UTF8
Codec ID/Info : UTF-8 Plain Text
Title : Blu-Ray
Language : Ukrainian
Default : No
Forced : No
Text #5
ID : 8
Format : UTF-8
Codec ID : S_TEXT/UTF8
Codec ID/Info : UTF-8 Plain Text
Title : Full
Language : English
Default : No
Forced : No
Text #6
ID : 9
Format : UTF-8
Codec ID : S_TEXT/UTF8
Codec ID/Info : UTF-8 Plain Text
Title : SDH
Language : English
Default : No
Forced : No
Text #7
ID : 10
Format : UTF-8
Codec ID : S_TEXT/UTF8
Codec ID/Info : UTF-8 Plain Text
Title : SDH-Colored
Language : English
Default : No
Forced : No
Menu
00:00:00.000 : en:(01)00:00:00:000
00:04:29.769 : en:(02)00:04:29:769
00:10:39.929 : en:(03)00:10:39:929
00:15:32.889 : en:(04)00:15:32:889
00:20:31.020 : en:(05)00:20:31:020
00:24:41.730 : en:(06)00:24:41:730
00:26:53.569 : en:(07)00:26:53:569
00:30:49.681 : en:(08)00:30:49:681
00:35:51.440 : en:(09)00:35:51:440
00:40:20.626 : en:(10)00:40:20:626
00:45:47.369 : en:(11)00:45:47:369
00:49:24.795 : en:(12)00:49:24:795
00:53:28.954 : en:(13)00:53:28:954
00:56:43.650 : en:(14)00:56:43:650
01:00:45.849 : en:(15)01:00:45:849
01:03:44.987 : en:(16)01:03:44:987
01:09:31.041 : en:(17)01:09:31:041
01:14:06.608 : en:(18)01:14:06:608
01:19:50.952 : en:(19)01:19:50:952
01:24:33.524 : en:(20)01:24:33:524
01:30:33.636 : en:(21)01:30:33:636

-
Скриншоты -
Скачать

Скачать торрент!

Как скачивать? · Что такое торрент? · Рейтинг и ограничения

Сайт не распространяет и не хранит электронные версии произведений, а лишь предоставляет доступ к создаваемому пользователями каталогу ссылок на торрент-файлы, которые содержат только списки хеш-сумм

[Профиль] [ЛС]
Показать сообщения:    
Ответить на тему

Текущее время: Сегодня 10:53

Часовой пояс: GMT + 4



Вы не можете начинать темы
Вы не можете отвечать на сообщения
Вы не можете редактировать свои сообщения
Вы не можете удалять свои сообщения
Вы не можете голосовать в опросах
Вы не можете прикреплять файлы к сообщениям
Вы не можете скачивать файлы