Лантана / Lantana (Рэй Лоуренс / Ray Lawrence) [2001, Австралия, Германия, драма, детектив, WEB-DL 720p] MVO + Sub Eng + Original Eng

Ответить на тему
 
Автор Сообщение

user ®

Стаж: 7 лет 7 месяцев

Сообщений: 20008

Пост Пост: #1 от 13-Июн-2015 23:21

[Цитировать]

Лантана / Lantana Страна: Австралия, Германия
Студия: Australian Film Finance Corporation, Jan Chapman Productions, MBP
Жанр: драма, детектив
Год выпуска: 2001
Продолжительность: 02:00:43
Перевод: Профессиональный (многоголосый закадровый)
Cубтитры: английские, + music, SDH
Оригинальная аудиодорожка: английский
Режиссер: Рэй Лоуренс / Ray Lawrence
В ролях: Энтони ЛаПалья, Джеффри Раш, Барбара Херши, Керри Армстронг, Рэйчел Блейк, Расселл Дикстра, Даниэла Фариначчи, Питер Фелпс, Леа Пурселл, Гленн Роббинс, Ману Беннетт, Мелисса Мартинес, Гленн Сутер, Наташа Гатри
Описание: Фильм рассказывает о судьбе пяти семей. Моменты счастья и разлада. Адвокат отчаянно борется за сохранение отношений со своей женой после того, как умирает их ребенок.- -Тип релиза: WEB-DL 720p
Контейнер: MKV
Видео: MPEG-4 AVC Video, 1280x718 / 1,78:1 (16:9) / ~4020 kbps / 23,976 fps / High@L3.1
Аудио 1: Russian: AC3, 6 ch, 384 kbps, 48 kHz
Аудио 2: English: AC3, 6 ch, 448 kbps, 48 kHz
Формат субтитров: softsub (SRT)
Главы: подписаны (eng)
MediaInfo
Общее
Уникальный идентификатор : 171570677412759625041081242697213184360 (0x81134F7E4A986A82A6703BA4C6A08968)
Полное имя : J:\Лантана 2001.WEB-DL.720p.ПМ.Eng.mkv
Формат : Matroska
Версия формата : Version 4 / Version 2
Размер файла : 4,17 Гбайт
Продолжительность : 2 ч. 0 м.
Общий поток : 4950 Кбит/сек
Название фильма : Lantana (2001)
Дата кодирования : UTC 2015-06-12 11:20:31
Программа кодирования : mkvmerge v7.8.0 ('River Man') 32bit built on Mar 27 2015 16:18:02
Библиотека кодирования : libebml v1.3.1 + libmatroska v1.4.2
Видео
Идентификатор : 1
Формат : AVC
Формат/Информация : Advanced Video Codec
Профиль формата : High@L3.1
Параметр CABAC формата : Нет
Параметр ReFrames формата : 2 кадра
Идентификатор кодека : V_MPEG4/ISO/AVC
Продолжительность : 2 ч. 0 м.
Битрейт : 4020 Кбит/сек
Ширина : 1280 пикселей
Высота : 718 пикселей
Соотношение сторон : 16:9
Режим частоты кадров : Постоянный
Частота кадров : 23,976 кадра/сек
Цветовое пространство : YUV
Субдискретизация насыщенности : 4:2:0
Битовая глубина : 8 бит
Тип развёртки : Прогрессивная
Бит/(Пиксели*Кадры) : 0.182
Размер потока : 3,39 Гбайт (81%)
Язык : aus
Default : Да
Forced : Нет
Основные цвета : BT.709
Характеристики трансфера : BT.709
Коэффициенты матрицы : BT.709
colour_range : Limited
Аудио #1
Идентификатор : 2
Формат : AC-3
Формат/Информация : Audio Coding 3
Расширение режима : CM (complete main)
Параметр Endianness формата : Big
Идентификатор кодека : A_AC3
Продолжительность : 2 ч. 0 м.
Вид битрейта : Постоянный
Битрейт : 384 Кбит/сек
Каналы : 6 каналов
Расположение каналов : Front: L C R, Side: L R, LFE
Частота : 48,0 КГц
Битовая глубина : 16 бит
Метод сжатия : С потерями
Размер потока : 332 Мбайт (8%)
Заголовок : AC3 6ch 384kbps - многоголосый
Язык : Russian
Default : Да
Forced : Нет
Аудио #2
Идентификатор : 3
Формат : AC-3
Формат/Информация : Audio Coding 3
Расширение режима : CM (complete main)
Параметр Endianness формата : Big
Идентификатор кодека : A_AC3
Продолжительность : 2 ч. 0 м.
Вид битрейта : Постоянный
Битрейт : 448 Кбит/сек
Каналы : 6 каналов
Расположение каналов : Front: L C R, Side: L R, LFE
Частота : 48,0 КГц
Битовая глубина : 16 бит
Метод сжатия : С потерями
Размер потока : 387 Мбайт (9%)
Заголовок : AC3 6ch 448kbps
Язык : English
Default : Нет
Forced : Нет
Текст #1
Идентификатор : 4
Формат : UTF-8
Идентификатор кодека : S_TEXT/UTF8
Идентификатор кодека/Информация : UTF-8 Plain Text
Язык : English
Default : Нет
Forced : Нет
Текст #2
Идентификатор : 5
Формат : UTF-8
Идентификатор кодека : S_TEXT/UTF8
Идентификатор кодека/Информация : UTF-8 Plain Text
Заголовок : (+ musuc)
Язык : English
Default : Нет
Forced : Нет
Текст #3
Идентификатор : 6
Формат : UTF-8
Идентификатор кодека : S_TEXT/UTF8
Идентификатор кодека/Информация : UTF-8 Plain Text
Заголовок : SDH
Язык : English
Default : Нет
Forced : Нет
Меню
00:00:00.000 : : 00:00:00 - lantana bush
00:04:03.510 : : 00:04:03 - Sex
00:07:57.211 : : 00:07:57 - Eleanor
00:13:23.311 : : 00:13:23 - Infidelity
00:18:18.978 : : 00:18:18 - Dignity
00:22:13.545 : : 00:22:13 - Collision
00:25:54.212 : : 00:25:54 - Partner
00:34:17.813 : : 00:34:17 - Judging
00:39:30.747 : : 00:39:30 - Betrayal
00:44:21.047 : : 00:44:21 - Bad day
00:48:41.247 : : 00:48:41 - Good stuff
00:51:55.514 : : 00:51:55 - Dancing
00:59:44.248 : : 00:59:44 - Emotional state
01:08:38.381 : : 01:08:38 - Words
01:13:06.881 : : 01:13:06 - Numb
01:16:48.749 : : 01:16:48 - Dilemma
01:19:52.149 : : 01:19:52 - Focused
01:24:02.516 : : 01:24:02 - Grief
01:30:19.716 : : 01:30:19 - Interrogation
01:35:00.849 : : 01:35:00 - Comfort
01:38:34.849 : : 01:38:34 - The truth
01:45:44.249 : : 01:45:44 - Breakdown
01:50:40.683 : : 01:50:40 - Change
01:56:07.083 : : 01:56:07 - End credits
02:00:38.617 : : 02:00:38 - End
Скриншоты

Доп
Скачать

Скачать торрент!

Как скачивать? · Что такое торрент? · Рейтинг и ограничения

Сайт не распространяет и не хранит электронные версии произведений, а лишь предоставляет доступ к создаваемому пользователями каталогу ссылок на торрент-файлы, которые содержат только списки хеш-сумм

[Профиль] [ЛС]
Показать сообщения:    
Ответить на тему

Текущее время: Сегодня 01:51

Часовой пояс: GMT + 4



Вы не можете начинать темы
Вы не можете отвечать на сообщения
Вы не можете редактировать свои сообщения
Вы не можете удалять свои сообщения
Вы не можете голосовать в опросах
Вы не можете прикреплять файлы к сообщениям
Вы не можете скачивать файлы