Тот самый папа / Min sa kallade pappa (Ульф Малмрос / Ulf Malmros) [2014, Швеция, мелодрама, BDRip 720p] VO (PashaUp) + Sub Rus + Original Swe

Ответить на тему
 
Автор Сообщение

user ®

Стаж: 7 лет 7 месяцев

Сообщений: 20008

Пост Пост: #1 от 12-Июн-2015 22:36

[Цитировать]

Тот самый папа / Min sa kallade pappa
Страна: Швеция
Жанр: мелодрама
Год выпуска: 2014
Продолжительность: 02:06:52
Перевод: Одноголосый закадровый - Павел Морозов aka PashaUp
Перевод 2: Субтитры - М.Васильев
Cубтитры: русские
Оригинальная аудиодорожка: шведский
Режиссер: Ульф Малмрос / Ulf Malmros
В ролях: Вера Витали, Микаэль Нюквист, Сверрир Гуднасон, Йохан Брост
Описание: Малин всю жизнь тщательно взращивала в себе комплекс, что она самая несчастная женщина на планете, потому что росла без отца, который оставил их с мамой много лет назад. Отсюда и все ее беды: и в личной жизни бардак и карьера не складывается... И вот сейчас, когда ей уже за 30, и она сама готовится стать матерью, ей приходит в голову блистательная идея: найти этого «того самого папу» и высказать ему все свои претензии. Реальность оказывается куда более необычной, чем она предполагала: ее отец — известная личность с ужасным, скверным характером и еще с провалами в памяти...
1 nomination
Доп. информация: К BDRip 720p, скачанному с забугорного трекера, добавлена русская звуковая дорожка, найденная в сети и субтитры с [url=http://***/forum/viewtopic.php?t=4939506]этой[/url] раздачи, спасибо М_Васильев.
Используемый софт: MKVtool, BeSweet, Sony Vegas 10
Сэмпл: http://multi-up.com/1053118
Тип релиза: BDRip 720p
Контейнер: MKV
Видео: AVC, 4650 Кбит/сек, 1280x 536, 24,000 кадра/сек
Аудио: Russian (Dolby AC3, 6 ch), 448 Kbp
Аудио 2: Swedish, DTS, 1509 Кбит/сек (6 ch), 48 kHz
Формат субтитров: UTF-8
MediaInfo
Matroska
Версия формата : Version 2
Размер файла : 5,86 Гбайт
Продолжительность : 2 ч. 6 м.
Общий поток : 6607 Кбит/сек
Дата кодирования : UTC 2015-06-09 15:20:20
Программа кодирования : mkvmerge v7.5.0 ('Glass Culture') 32bit built on Jan 4 2015 16:37:25
Библиотека кодирования : libebml v1.3.1 + libmatroska v1.4.2
DURATION : 02:02:57.044000000
NUMBER_OF_FRAMES : 887
NUMBER_OF_BYTES : 47507
_STATISTICS_WRITING_APP : mkvmerge v7.5.0 ('Glass Culture') 32bit built on Jan 4 2015 16:37:25
_STATISTICS_WRITING_DATE_UTC : 2015-06-09 15:20:20
_STATISTICS_TAGS : BPS DURATION NUMBER_OF_FRAMES NUMBER_OF_BYTES
Видео
Идентификатор : 1
Формат : AVC
Формат/Информация : Advanced Video Codec
Профиль формата : High@L4.1
Параметр CABAC формата : Да
Параметр ReFrames формата : 5 кадров
Идентификатор кодека : V_MPEG4/ISO/AVC
Продолжительность : 2 ч. 6 м.
Битрейт : 4650 Кбит/сек
Ширина : 1280 пикселей
Высота : 536 пикселей
Соотношение сторон : 2,40:1
Режим частоты кадров : Постоянный
Частота кадров : 24,000 кадра/сек
Цветовое пространство : YUV
Субдискретизация насыщенности : 4:2:0
Битовая глубина : 8 бит
Тип развёртки : Прогрессивная
Бит/(Пиксели*Кадры) : 0.282
Размер потока : 4,00 Гбайт (68%)
Библиотека кодирования : x264 core 144 r2525kMod 40bb568
Настройки программы : cabac=1 / ref=5 / deblock=1:0:0 / analyse=0x3:0x133 / me=umh / subme=7 / psy=1 / fade_compensate=0.00 / psy_rd=1.00:0.00 / mixed_ref=1 / me_range=16 / chroma_me=1 / trellis=1 / 8x8dct=1 / cqm=0 / deadzone=21,11 / fast_pskip=0 / chroma_qp_offset=-2 / threads=18 / lookahead_threads=3 / sliced_threads=0 / nr=0 / decimate=1 / interlaced=0 / bluray_compat=0 / constrained_intra=0 / fgo=0 / bframes=3 / b_pyramid=2 / b_adapt=2 / b_bias=0 / direct=3 / weightb=1 / open_gop=0 / weightp=2 / keyint=250 / keyint_min=24 / scenecut=40 / intra_refresh=0 / rc_lookahead=50 / rc=2pass / mbtree=1 / bitrate=4650 / ratetol=1.0 / qcomp=0.60 / qpmin=0 / qpmax=69 / qpstep=4 / cplxblur=20.0 / qblur=0.5 / ip_ratio=1.40 / aq=1:1.00
Язык : Russian
Default : Да
Forced : Нет
DURATION : 02:06:51.959000000
NUMBER_OF_FRAMES : 182687
NUMBER_OF_BYTES : 4422283527
_STATISTICS_WRITING_APP : mkvmerge v7.5.0 ('Glass Culture') 32bit built on Jan 4 2015 16:37:25
_STATISTICS_WRITING_DATE_UTC : 2015-06-09 15:20:20
_STATISTICS_TAGS : BPS DURATION NUMBER_OF_FRAMES NUMBER_OF_BYTES
Аудио #1
Идентификатор : 2
Формат : AC-3
Формат/Информация : Audio Coding 3
Расширение режима : CM (complete main)
Параметр Endianness формата : Big
Идентификатор кодека : A_AC3
Продолжительность : 2 ч. 6 м.
Вид битрейта : Постоянный
Битрейт : 448 Кбит/сек
Каналы : 6 каналов
Расположение каналов : Front: L C R, Side: L R, LFE
Частота : 48,0 КГц
Битовая глубина : 16 бит
Метод сжатия : С потерями
Размер потока : 407 Мбайт (7%)
Заголовок : Russian AC3 5.1
Язык : Russian
Default : Да
Forced : Нет
Аудио #2
Идентификатор : 3
Формат : DTS
Формат/Информация : Digital Theater Systems
Режим : 16
Параметр Endianness формата : Big
Идентификатор кодека : A_DTS
Продолжительность : 2 ч. 6 м.
Вид битрейта : Постоянный
Битрейт : 1509 Кбит/сек
Каналы : 6 каналов
Расположение каналов : Front: L C R, Side: L R, LFE
Частота : 48,0 КГц
Битовая глубина : 24 бит
Метод сжатия : С потерями
Размер потока : 1,34 Гбайт (23%)
Язык : Swedish
Default : Нет
Forced : Нет
Текст
Идентификатор : 4
Формат : UTF-8
Идентификатор кодека : S_TEXT/UTF8
Идентификатор кодека/Информация : UTF-8 Plain Text
Заголовок : Russian
Язык : Russian
Default : Нет
Forced : Нет
Скриншоты
Скачать

Скачать торрент!

Как скачивать? · Что такое торрент? · Рейтинг и ограничения

Сайт не распространяет и не хранит электронные версии произведений, а лишь предоставляет доступ к создаваемому пользователями каталогу ссылок на торрент-файлы, которые содержат только списки хеш-сумм

[Профиль] [ЛС]
Показать сообщения:    
Ответить на тему

Текущее время: Сегодня 06:28

Часовой пояс: GMT + 4



Вы не можете начинать темы
Вы не можете отвечать на сообщения
Вы не можете редактировать свои сообщения
Вы не можете удалять свои сообщения
Вы не можете голосовать в опросах
Вы не можете прикреплять файлы к сообщениям
Вы не можете скачивать файлы