Семейка Брэди / The Brady Bunch Movie (Бетти Томас / Betty Thomas) [1995, США, комедия, семейный, WEB-DL 720p] DVO (Премьер Видео Фильм) + MVO (Paramount channel) + AVO (Леонид Володарский) + Sub Eng + Original Eng

Ответить на тему
 
Автор Сообщение

user ®

Стаж: 7 лет 7 месяцев

Сообщений: 20008

Пост Пост: #1 от 12-Июн-2015 22:36

[Цитировать]

Семейка Брэди / The Brady Bunch Movie
Страна: США
Жанр: комедия, семейный
Год выпуска: 1995
Продолжительность: 01:28:27
Перевод 1: Профессиональный (двухголосый закадровый) Премьер Видео Фильм
Перевод 2: Профессиональный (многоголосый закадровый) Paramount channel
Перевод 3: Авторский (одноголосый закадровый) Леонид Володарский
Cубтитры: английские
Оригинальная аудиодорожка: английский
Режиссер: Бетти Томас / Betty Thomas
В ролях: Шелли Лонг, Гэри Коул, Кристин Тейлор, Кристофер Дэниэл Барнс, Дженнифер Элиз Кокс, Пол Сатера, Оливия Хэк, Джесси Ли Соффер, Хенриетта Мантел, Дэвид Граф...
Описание: У семейки Брэди шестеро детей: три девочки и трое мальчиков. Семейка настолько хорошая, порядочная, добрая, приличная, умильная, что даже немножко воротит. Большие проблемы появляются у всей семьи, когда фирма, в которой работает алчный делец мистер Дитмайер, решает скупить все участки в районе, где живёт семья Брэди, чтобы построить торговый центр. Брэди оказываются единственными, кто не соглашается на продажу дома. Но Дитмайеру сопутствует удача, из-за задержи выплаты налогов у семейства Брэди могут забрать дом и продать с аукциона. Тогда за дело берутся детишки, хотя дело это сложное — нужно быстро собрать 20 тысяч долларов.
Доп. информация: За переводы Премьер Видео Фильм и Володарского спасибо spartac, за перевод Paramount channel спасибо smit009. Синхронизация переводов - Dreven.
Сэмпл: http://multi-up.com/1053292
Тип релиза: WEB-DL 720p
Контейнер: MKV
Видео: 1280x720 (16:9), 23.976 fps, AVC, ~4082 Kbps, 0.185 bits/pixel
Аудио 1: Russian, 48.0 KHz, AC3, 2 ch, 192 Kbps - Премьер Видео Фильм
Аудио 2: Russian, 48.0 KHz, AC3, 2 ch, 192 Kbps - Paramount channel
Аудио 3: Russian, 48.0 KHz, AC3, 2 ch, 192 Kbps - Леонид Володарский
Аудио 4: English, 48.0 KHz, AC3, 6 ch, 448 Kbps

MediaInfo
General
Unique ID : 202447362276903425288495854623405304880 (0x984DF1977221AECE8761AAF38F6EEC30)
Complete name : D:\The Brady Bunch Movie.mkv
Format : Matroska
Format version : Version 4 / Version 2
File size : 3.22 GiB
Duration : 1h 28mn
Overall bit rate : 5 210 Kbps
Movie name :
Encoded date : UTC 2015-06-11 17:43:01
Writing application : mkvmerge v7.9.0 ('Birds') 64bit
Writing library : libebml v1.3.1 + libmatroska v1.4.2
DURATION : 01:28:26.720000000
NUMBER_OF_FRAMES : 165835
NUMBER_OF_BYTES : 127361280
_STATISTICS_WRITING_APP : mkvmerge v7.9.0 ('Birds') 64bit
_STATISTICS_WRITING_DATE_UT : 2015-06-11 17:43:01
_STATISTICS_TAGS : BPS DURATION NUMBER_OF_FRAMES NUMBER_OF_BYTES
Video
ID : 1
Format : AVC
Format/Info : Advanced Video Codec
Format profile : High@L3.1
Format settings, CABAC : No
Format settings, ReFrames : 2 frames
Codec ID : V_MPEG4/ISO/AVC
Duration : 1h 28mn
Bit rate : 4 082 Kbps
Width : 1 280 pixels
Height : 720 pixels
Display aspect ratio : 16:9
Frame rate mode : Constant
Frame rate : 23.976 fps
Color space : YUV
Chroma subsampling : 4:2:0
Bit depth : 8 bits
Scan type : Progressive
Bits/(Pixel*Frame) : 0.185
Stream size : 2.52 GiB (78%)
Language : English
Default : Yes
Forced : No
Color range : Limited
Color primaries : BT.709
Transfer characteristics : BT.709
Matrix coefficients : BT.709
Audio #1
ID : 2
Format : AC-3
Format/Info : Audio Coding 3
Mode extension : CM (complete main)
Format settings, Endianness : Big
Codec ID : A_AC3
Duration : 1h 28mn
Bit rate mode : Constant
Bit rate : 192 Kbps
Channel(s) : 2 channels
Channel positions : Front: L R
Sampling rate : 48.0 KHz
Compression mode : Lossy
Stream size : 121 MiB (4%)
Title : Премьер Видео Фильм
Language : Russian
Default : Yes
Forced : No
Audio #2
ID : 3
Format : AC-3
Format/Info : Audio Coding 3
Mode extension : CM (complete main)
Format settings, Endianness : Big
Codec ID : A_AC3
Duration : 1h 28mn
Bit rate mode : Constant
Bit rate : 192 Kbps
Channel(s) : 2 channels
Channel positions : Front: L R
Sampling rate : 48.0 KHz
Compression mode : Lossy
Stream size : 121 MiB (4%)
Title : Paramount channel
Language : Russian
Default : No
Forced : No
Audio #3
ID : 4
Format : AC-3
Format/Info : Audio Coding 3
Mode extension : CM (complete main)
Format settings, Endianness : Big
Codec ID : A_AC3
Duration : 1h 28mn
Bit rate mode : Constant
Bit rate : 192 Kbps
Channel(s) : 2 channels
Channel positions : Front: L R
Sampling rate : 48.0 KHz
Compression mode : Lossy
Stream size : 121 MiB (4%)
Title : Леонид Володарский
Language : Russian
Default : No
Forced : No
Audio #4
ID : 5
Format : AC-3
Format/Info : Audio Coding 3
Mode extension : CM (complete main)
Format settings, Endianness : Big
Codec ID : A_AC3
Duration : 1h 28mn
Bit rate mode : Constant
Bit rate : 448 Kbps
Channel(s) : 6 channels
Channel positions : Front: L C R, Side: L R, LFE
Sampling rate : 48.0 KHz
Compression mode : Lossy
Stream size : 283 MiB (9%)
Language : English
Default : No
Forced : No
Text
ID : 6
Format : UTF-8
Codec ID : S_TEXT/UTF8
Codec ID/Info : UTF-8 Plain Text
Language : English
Default : No
Forced : No
Menu
00:00:00.000 : en:Have A Nice Day
00:02:53.000 : en:They're Not Normal
00:13:48.000 : en:This Is A Car, Jack
00:17:13.000 : en:Goddess Of West Dale High
00:21:03.000 : en:Work It
00:23:34.000 : en:Strike One
00:27:37.000 : en:We Can Save The House!
00:31:55.000 : en:Bravo, Johnny Bravo
00:35:58.000 : en:Teen Models
00:37:48.000 : en:Strike Two
00:39:49.000 : en:32-24-Hike!
00:43:40.000 : en:Different Drummer
00:48:46.000 : en:That Really Is Davy Jones!
01:00:12.000 : en:Going, Going, Gone
01:05:26.000 : en:Janhunt
01:13:55.000 : en:Keep On Keepin' On
01:19:19.000 : en:Stop The Auction!
01:24:31.000 : en:Change, Change, Change
Скриншоты
Скачать

Скачать торрент!

Как скачивать? · Что такое торрент? · Рейтинг и ограничения

Сайт не распространяет и не хранит электронные версии произведений, а лишь предоставляет доступ к создаваемому пользователями каталогу ссылок на торрент-файлы, которые содержат только списки хеш-сумм

[Профиль] [ЛС]
Показать сообщения:    
Ответить на тему

Текущее время: Сегодня 18:08

Часовой пояс: GMT + 4



Вы не можете начинать темы
Вы не можете отвечать на сообщения
Вы не можете редактировать свои сообщения
Вы не можете удалять свои сообщения
Вы не можете голосовать в опросах
Вы не можете прикреплять файлы к сообщениям
Вы не можете скачивать файлы