Азбука футбола / The Big Green (Холли Голдберг Слоун / Holly Goldberg Sloan) [1995, США, комедия, семейный, спорт, WEB-DL 1080p] DVO + DVO (SDI Media) + AVO (Павел Санаев) + Sub Eng + Original Eng

Ответить на тему
 
Автор Сообщение

user ®

Стаж: 7 лет 7 месяцев

Сообщений: 20008

Пост Пост: #1 от 12-Июн-2015 22:36

[Цитировать]

Азбука футбола / The Big Green
Страна: США
Жанр: комедия, семейный, спорт
Год выпуска: 1995
Продолжительность: 01:39:51
Перевод 1: Профессиональный (двухголосый закадровый) Видеосервис?
Перевод 2: Профессиональный (двухголосый закадровый) SDI Media (Латвия)
Перевод 3: Авторский (одноголосый закадровый) Павел Санаев
Cубтитры: английские
Оригинальная аудиодорожка: английский
Режиссер: Холли Голдберг Слоун / Holly Goldberg Sloan
В ролях: Стив Гуттенберг, Оливия д’Або, Джей О. Сэндерс, Джон Терри, Чонси Леопарди, Патрик Ренна, Билли Л. Салливан, Ярели Арисменди, Баг Холл, Джесси Робертсон...
Описание: Футбол — поистине самая популярная игра в мире. Теперь об этом знают и американцы. Правда не все, а только жители маленького городка в Техасе, в который приехала работать учительница физкультуры из Англии.
Для того, чтобы привить своим ученикам любовь к этой знаменитой игре, Анна Монтгомери решает создать в школе футбольную команду. Однако она и не думала, что так трудно объяснить американцам, что европейский футбол ничего общего не имеет с американским.
И чтобы совсем не упасть духом, мисс Монтгомери заручается поддержкой местного шерифа, который берется воспитать из ее подопечных не просто команду, а супер-команду.
Доп. информация:
Двухголосый перевод с раздачи sylverman.
Перевод SDI Media с раздачи S.o.e.R.
Перевод Санаева с раздачи Richard Coca.
Синхронизация звука - Dreven.
Сэмпл: http://sendfile.su/1127521
Тип релиза: WEB-DL 1080p
Контейнер: MKV
Видео: 1920x1040 (16:9), 23.976 fps, AVC, ~10000 Kbps, 0.209 bits/pixel
Аудио 1: Russian, 48.0 KHz, AC3, 2 ch, 192 Kbps
Аудио 2: Russian, 48.0 KHz, AC3, 2 ch, 192 Kbps - SDI Media
Аудио 3: Russian, 48.0 KHz, AC3, 2 ch, 192 Kbps - Павел Санаев
Аудио 4: English, 48.0 KHz, AAC LC, 2 ch 128kbps

MediaInfo
General
Unique ID : 233166748635859886532360806053099740802 (0xAF6A48465758693397F09E47A0621E82)
Complete name : D:\The Big Green.mkv
Format : Matroska
Format version : Version 4 / Version 2
File size : 7.41 GiB
Duration : 1h 39mn
Overall bit rate : 10.6 Mbps
Movie name :
Encoded date : UTC 2015-06-12 11:19:21
Writing application : mkvmerge v7.9.0 ('Birds') 64bit
Writing library : libebml v1.3.1 + libmatroska v1.4.2
DURATION : 01:35:13.160000000
NUMBER_OF_FRAMES : 1073
NUMBER_OF_BYTES : 44599
_STATISTICS_WRITING_APP : mkvmerge v7.9.0 ('Birds') 64bit
_STATISTICS_WRITING_DATE_UT : 2015-06-12 11:19:21
_STATISTICS_TAGS : BPS DURATION NUMBER_OF_FRAMES NUMBER_OF_BYTES
Video
ID : 1
Format : AVC
Format/Info : Advanced Video Codec
Format profile : High@L4
Format settings, CABAC : Yes
Format settings, ReFrames : 4 frames
Codec ID : V_MPEG4/ISO/AVC
Duration : 1h 39mn
Bit rate mode : Constant
Nominal bit rate : 10 000 Kbps
Width : 1 920 pixels
Height : 1 040 pixels
Display aspect ratio : 1.85:1
Frame rate mode : Constant
Frame rate : 23.976 fps
Color space : YUV
Chroma subsampling : 4:2:0
Bit depth : 8 bits
Scan type : Progressive
Bits/(Pixel*Frame) : 0.209
Language : English
Default : Yes
Forced : No
Color range : Limited
Color primaries : BT.709
Transfer characteristics : BT.709
Matrix coefficients : BT.709
Audio #1
ID : 2
Format : AC-3
Format/Info : Audio Coding 3
Mode extension : CM (complete main)
Format settings, Endianness : Big
Codec ID : A_AC3
Duration : 1h 39mn
Bit rate mode : Constant
Bit rate : 192 Kbps
Channel(s) : 2 channels
Channel positions : Front: L R
Sampling rate : 48.0 KHz
Compression mode : Lossy
Stream size : 137 MiB (2%)
Language : Russian
Default : Yes
Forced : No
Audio #2
ID : 3
Format : AC-3
Format/Info : Audio Coding 3
Mode extension : CM (complete main)
Format settings, Endianness : Big
Codec ID : A_AC3
Duration : 1h 39mn
Bit rate mode : Constant
Bit rate : 192 Kbps
Channel(s) : 2 channels
Channel positions : Front: L R
Sampling rate : 48.0 KHz
Compression mode : Lossy
Stream size : 137 MiB (2%)
Title : SDI Media (Латвия)
Language : Russian
Default : No
Forced : No
Audio #3
ID : 4
Format : AC-3
Format/Info : Audio Coding 3
Mode extension : CM (complete main)
Format settings, Endianness : Big
Codec ID : A_AC3
Duration : 1h 39mn
Bit rate mode : Constant
Bit rate : 192 Kbps
Channel(s) : 2 channels
Channel positions : Front: L R
Sampling rate : 48.0 KHz
Compression mode : Lossy
Stream size : 137 MiB (2%)
Title : Павел Санаев
Language : Russian
Default : No
Forced : No
Audio #4
ID : 5
Format : AAC
Format/Info : Advanced Audio Codec
Format profile : LC
Codec ID : A_AAC
Duration : 1h 39mn
Channel(s) : 2 channels
Channel positions : Front: L R
Sampling rate : 48.0 KHz
Compression mode : Lossy
Language : English
Default : No
Forced : No
Text
ID : 6
Format : UTF-8
Codec ID : S_TEXT/UTF8
Codec ID/Info : UTF-8 Plain Text
Language : English
Default : No
Forced : No
Скриншоты
Скачать

Скачать торрент!

Как скачивать? · Что такое торрент? · Рейтинг и ограничения

Сайт не распространяет и не хранит электронные версии произведений, а лишь предоставляет доступ к создаваемому пользователями каталогу ссылок на торрент-файлы, которые содержат только списки хеш-сумм

[Профиль] [ЛС]
Показать сообщения:    
Ответить на тему

Текущее время: Сегодня 07:54

Часовой пояс: GMT + 4



Вы не можете начинать темы
Вы не можете отвечать на сообщения
Вы не можете редактировать свои сообщения
Вы не можете удалять свои сообщения
Вы не можете голосовать в опросах
Вы не можете прикреплять файлы к сообщениям
Вы не можете скачивать файлы