Считанные секунды / Доля секунды / Split Second (Тони Мэйлэм / Tony Maylam) [1992, Великобритания, ужасы, фантастика, боевик, триллер, криминал, BDRip 720p] 3x MVO (Карусель, LostFilm, СТС) + DVO + 2x AVO + VO + Original Eng + Sub Rus, Eng

Ответить на тему
 
Автор Сообщение

user ®

Стаж: 7 лет 7 месяцев

Сообщений: 20008

Пост Пост: #1 от 12-Июн-2015 19:30

[Цитировать]

Считанные секунды / Доля секунды / Split Second- Год выпуска: 1992
Страна: Великобритания
Жанр: ужасы, фантастика, боевик, триллер, криминал
Продолжительность: 01:30:25
Перевод: Профессиональный (многоголосый, закадровый) Карусель
+ Профессиональный (многоголосый, закадровый) LostFilm
+ Профессиональный (двухголосый, закадровый) Фортуна-Фильм
+ Профессиональный (многоголосый, закадровый) СТС
+ Авторский одноголосый Ю.Живов
+ Одноголосый закадровый В.Завгородний
+ Авторский одноголосый А.Гаврилов
Оригинальная звуковая дорожка: English
Субтитры: Russian, English-Режиссер: Тони Мэйлэм / Tony Maylam
В ролях: Рутгер Хауэр, Ким Кэтролл, Нил Дункан, Майкл Дж. Поллард, Алан Армстронг, Пит Постлетуэйт, Иэн Дёри, Роберта Итон, Тони Стидман, Стивен Хартли
О фильме: 2008 год. Место действия — туманный Лондон, полузатопленный Темзой после всемирной экологической катастрофы. Город потрясен загадочными, нечеловеческими убийствами. Каждый день на улицах находят трупы людей с разорванной грудной клеткой…-Релиз:
Тип релиза: BDRip 720p
Источник: Split Second 1992 1080p GER Blu-ray AVC DD 5.1-iFPD
Контейнер: MKV
Видео: 1280x720 at 23.976 fps, x264@L4.1, 2pass, ~7000 kbps avg
Аудио #01: Russian: 48 kHz, AC3, 2/0 (L,R) ch, ~448.00 kbps avg |Многоголосый закадровый, Карусель|
Аудио #02: Russian: 48 kHz, AC3, 2/0 (L,R) ch, ~192.00 kbps avg |Многоголосый закадровый, LostFilm|
Аудио #03: Russian: 48 kHz, AC3, 2/0 (L,R) ch, ~192.00 kbps avg |Двухголосый закадровый, Фортуна-Фильм|
Аудио #04: Russian: 48 kHz, AC3, 2/0 (L,R) ch, ~192.00 kbps avg |Многоголосый закадровый, СТС|
Аудио #05: Russian: 48 kHz, AC3, 2/0 (L,R) ch, ~448.00 kbps avg |Одноголосый закадровый, Ю. Живов|
Аудио #06: Russian: 48 kHz, AC3, 2/0 (L,R) ch, ~448.00 kbps avg |Одноголосый закадровый, Завгородний|
Аудио #07: Russian: 48 kHz, AC3, 2/0 (L,R) ch, ~192.00 kbps avg |Одноголосый закадровый, А. Гаврилов|
Аудио #08: Ukrainian: 48 kHz, AC3, 2/0 (L,R) ch, ~192.00 kbps avg |Многоголосый закадровый|
Аудио #09: English: 48 kHz, AC3, 2/0 (L,R) ch, ~448.00 kbps avg
Семпл-

Source vs Encode
-
Log

x264 [info]: frame I:712 Avg QP:14.62 size:116762
x264 [info]: frame P:30155 Avg QP:16.91 size: 59602
x264 [info]: frame B:99214 Avg QP:18.81 size: 28881

-
mInfo
Format : Matroska
Format version : Version 4 / Version 2
File size : 6.16 GiB
Duration : 1h 30mn
Overall bit rate : 9 752 Kbps
Encoded date : UTC 2015-06-08 10:32:39
Writing application : mkvmerge v7.9.0 ('Birds') 64bit
Writing library : libebml v1.3.1 + libmatroska v1.4.2
Attachements : cover
DURATION : 01:24:48.244000000
NUMBER_OF_FRAMES : 809
NUMBER_OF_BYTES : 26153
_STATISTICS_WRITING_APP : mkvmerge v7.9.0 ('Birds') 64bit
_STATISTICS_WRITING_DATE_UT : 2015-06-08 10:32:39
_STATISTICS_TAGS : BPS DURATION NUMBER_OF_FRAMES NUMBER_OF_BYTES
Video
ID : 1
Format : AVC
Format/Info : Advanced Video Codec
Format profile : High@L4.1
Format settings, CABAC : Yes
Format settings, ReFrames : 9 frames
Codec ID : V_MPEG4/ISO/AVC
Duration : 1h 30mn
Bit rate : 7 000 Kbps
Width : 1 280 pixels
Height : 720 pixels
Display aspect ratio : 16:9
Frame rate mode : Constant
Frame rate : 23.976 fps
Color space : YUV
Chroma subsampling : 4:2:0
Bit depth : 8 bits
Scan type : Progressive
Bits/(Pixel*Frame) : 0.317
Stream size : 4.30 GiB (70%)
Title : Split Second (1992) 720p BDRip
Writing library : x264 core 146 r2538kMod 121396c
Encoding settings : cabac=1 / ref=9 / deblock=1:-3:-3 / analyse=0x3:0x113 / me=umh / subme=10 / psy=1 / fade_compensate=0.00 / psy_rd=1.00:0.00 / mixed_ref=1 / me_range=64 / chroma_me=1 / trellis=2 / 8x8dct=1 / cqm=0 / deadzone=21,11 / fast_pskip=0 / chroma_qp_offset=-2 / threads=12 / lookahead_threads=3 / sliced_threads=0 / nr=0 / decimate=0 / interlaced=0 / bluray_compat=0 / constrained_intra=0 / fgo=0 / bframes=11 / b_pyramid=2 / b_adapt=2 / b_bias=0 / direct=3 / weightb=1 / open_gop=0 / weightp=2 / keyint=240 / keyint_min=23 / scenecut=40 / intra_refresh=0 / rc_lookahead=80 / rc=2pass / mbtree=0 / bitrate=7000 / ratetol=1.0 / qcomp=0.60 / qpmin=0 / qpmax=69 / qpstep=4 / cplxblur=20.0 / qblur=0.5 / vbv_maxrate=50000 / vbv_bufsize=62500 / nal_hrd=none / filler=0 / ip_ratio=1.40 / pb_ratio=1.30 / aq=1:1.00
Language : English
Default : Yes
Forced : No
DURATION : 01:30:25.462000000
NUMBER_OF_FRAMES : 130081
NUMBER_OF_BYTES : 4745816708
_STATISTICS_WRITING_APP : mkvmerge v7.9.0 ('Birds') 64bit
_STATISTICS_WRITING_DATE_UT : 2015-06-08 10:32:39
_STATISTICS_TAGS : BPS DURATION NUMBER_OF_FRAMES NUMBER_OF_BYTES
Audio #1
ID : 2
Format : AC-3
Format/Info : Audio Coding 3
Mode extension : CM (complete main)
Format settings, Endianness : Big
Codec ID : A_AC3
Duration : 1h 30mn
Bit rate mode : Constant
Bit rate : 448 Kbps
Channel(s) : 2 channels
Channel positions : Front: L R
Sampling rate : 48.0 KHz
Compression mode : Lossy
Stream size : 290 MiB (5%)
Title : [Карусель] Mvo - AC3 2.0 @ 448 kbps
Language : Russian
Default : Yes
Forced : No
Audio #2
ID : 3
Format : AC-3
Format/Info : Audio Coding 3
Mode extension : CM (complete main)
Format settings, Endianness : Big
Codec ID : A_AC3
Duration : 1h 30mn
Bit rate mode : Constant
Bit rate : 192 Kbps
Channel(s) : 2 channels
Channel positions : Front: L R
Sampling rate : 48.0 KHz
Compression mode : Lossy
Stream size : 124 MiB (2%)
Title : [LostFilm] Mvo - AC3 2.0 @ 192 kbps
Language : Russian
Default : No
Forced : No
Audio #3
ID : 4
Format : AC-3
Format/Info : Audio Coding 3
Mode extension : CM (complete main)
Format settings, Endianness : Big
Codec ID : A_AC3
Duration : 1h 30mn
Bit rate mode : Constant
Bit rate : 192 Kbps
Channel(s) : 2 channels
Channel positions : Front: L R
Sampling rate : 48.0 KHz
Compression mode : Lossy
Stream size : 124 MiB (2%)
Title : [Фортуна-Фильм] Dvo - AC3 2.0 @ 192 kbps
Language : Russian
Default : No
Forced : No
Audio #4
ID : 5
Format : AC-3
Format/Info : Audio Coding 3
Mode extension : CM (complete main)
Format settings, Endianness : Big
Codec ID : A_AC3
Duration : 1h 30mn
Bit rate mode : Constant
Bit rate : 192 Kbps
Channel(s) : 2 channels
Channel positions : Front: L R
Sampling rate : 48.0 KHz
Compression mode : Lossy
Stream size : 124 MiB (2%)
Title : [СТС] Mvo - AC3 2.0 @ 192 kbps
Language : Russian
Default : No
Forced : No
Audio #5
ID : 6
Format : AC-3
Format/Info : Audio Coding 3
Mode extension : CM (complete main)
Format settings, Endianness : Big
Codec ID : A_AC3
Duration : 1h 30mn
Bit rate mode : Constant
Bit rate : 448 Kbps
Channel(s) : 2 channels
Channel positions : Front: L R
Sampling rate : 48.0 KHz
Compression mode : Lossy
Stream size : 290 MiB (5%)
Title : [Ю. Живов] Avo - AC3 2.0 @ 448 kbps
Language : Russian
Default : No
Forced : No
Audio #6
ID : 7
Format : AC-3
Format/Info : Audio Coding 3
Mode extension : CM (complete main)
Format settings, Endianness : Big
Codec ID : A_AC3
Duration : 1h 30mn
Bit rate mode : Constant
Bit rate : 448 Kbps
Channel(s) : 2 channels
Channel positions : Front: L R
Sampling rate : 48.0 KHz
Compression mode : Lossy
Stream size : 290 MiB (5%)
Title : [Завгородний] Avo - AC3 2.0 @ 448 kbps
Language : Russian
Default : No
Forced : No
Audio #7
ID : 8
Format : AC-3
Format/Info : Audio Coding 3
Mode extension : CM (complete main)
Format settings, Endianness : Big
Codec ID : A_AC3
Duration : 1h 30mn
Bit rate mode : Constant
Bit rate : 192 Kbps
Channel(s) : 2 channels
Channel positions : Front: L R
Sampling rate : 48.0 KHz
Compression mode : Lossy
Stream size : 124 MiB (2%)
Title : [А. Гаврилов] Avo - AC3 2.0 @ 192 kbps
Language : Russian
Default : No
Forced : No
Audio #8
ID : 9
Format : AC-3
Format/Info : Audio Coding 3
Mode extension : CM (complete main)
Format settings, Endianness : Big
Codec ID : A_AC3
Duration : 1h 30mn
Bit rate mode : Constant
Bit rate : 192 Kbps
Channel(s) : 2 channels
Channel positions : Front: L R
Sampling rate : 48.0 KHz
Compression mode : Lossy
Stream size : 124 MiB (2%)
Title : Mvo - AC3 2.0 @ 192 kbps
Language : Ukrainian
Default : No
Forced : No
Audio #9
ID : 10
Format : AC-3
Format/Info : Audio Coding 3
Mode extension : CM (complete main)
Format settings, Endianness : Big
Codec ID : A_AC3
Duration : 1h 30mn
Bit rate mode : Constant
Bit rate : 448 Kbps
Channel(s) : 2 channels
Channel positions : Front: L R
Sampling rate : 48.0 KHz
Compression mode : Lossy
Stream size : 290 MiB (5%)
Title : AC3 2.0 @ 192 kbps
Language : English
Default : No
Forced : No
Text #1
ID : 11
Format : UTF-8
Codec ID : S_TEXT/UTF8
Codec ID/Info : UTF-8 Plain Text
Title : [SRT/UTF8] Full
Language : Russian
Default : No
Forced : No
Text #2
ID : 12
Format : UTF-8
Codec ID : S_TEXT/UTF8
Codec ID/Info : UTF-8 Plain Text
Title : [SRT/UTF8] Full
Language : English
Default : No
Forced : No
Menu
00:00:00.000 : en:00:00:00.000
00:00:00.375 : en:00:00:00.375
00:11:27.437 : en:00:11:27.437
00:28:56.985 : en:00:28:56.985
00:43:52.296 : en:00:43:52.296
00:59:27.814 : en:00:59:27.814
01:12:43.109 : en:01:12:43.109
01:20:28.240 : en:01:20:28.240
01:27:39.171 : en:01:27:39.171

-
Цитата:
* Спасибо Прагматик за исходник.
* Сохранены оригинальные чаптеры как на Blu-Ray.
* В связи с полной убогостью оригинальной дорожки приложенной к Blu_Ray - примитивно дутой 5.1 из стерео низкого качества, в качестве оригинала была взята AC3 2 ch 448 kbps из старого издания DVD R1 хорошего качества и с отличной панорамой.
* Дорогм №№ 1,5 и 6 получены микшированием чистых голосов переводчиков с оригиналом.
* За субтитры спасибо Bess80
Скачать

Скачать торрент!

Как скачивать? · Что такое торрент? · Рейтинг и ограничения

Сайт не распространяет и не хранит электронные версии произведений, а лишь предоставляет доступ к создаваемому пользователями каталогу ссылок на торрент-файлы, которые содержат только списки хеш-сумм

[Профиль] [ЛС]
Показать сообщения:    
Ответить на тему

Текущее время: Сегодня 18:38

Часовой пояс: GMT + 4



Вы не можете начинать темы
Вы не можете отвечать на сообщения
Вы не можете редактировать свои сообщения
Вы не можете удалять свои сообщения
Вы не можете голосовать в опросах
Вы не можете прикреплять файлы к сообщениям
Вы не можете скачивать файлы