Август / Elokuu (Оскари Сипола / Oskari Sipola) [2011, Финляндия, драма, BDRip 720p] VO (lord666) + Sub Rus, Eng, Fin + Original Fin

Ответить на тему
 
Автор Сообщение

user ®

Стаж: 7 лет 7 месяцев

Сообщений: 20008

Пост Пост: #1 от 12-Июн-2015 19:30

[Цитировать]

Август / Elokuu
Страна: Финляндия
Жанр: Драма
Год выпуска: 2011
Продолжительность: 01:50:28
Перевод 1: Одноголосый закадровый l- ord666
Перевод 2: Субтитры
Cубтитры: русские, английские, финские...
Оригинальная аудиодорожка: финский
Режиссер: Оскари Сипола / Oskari Sipola
В ролях: Эппу Пастинен, Лина Туркама, Загрос Манучар, Нийна Копонен, Пихла Виитала, Илка Хайсканен, Хенрика Андерссон, Juha Lagström, Markku Maalismaa
Описание: Начинается лето, Аку заканчивает школу и испытывает внутреннее опустошение. Девушка, родители и друзья уехали из города, поэтому каникулы предугадываются не лучшие. Все меняется, когда Аку встречает Джули - красивую, странную и дикую девушку. Джули просит парня отвезти ее в Восточную Финляндию. Он соглашается, даже не подозревая, во что ввязывается…
Доп. информация: К BDRip 720p, скачанному с забугорного трекера, добавлена русская звуковая дорожка с [url=http://***/forum/viewtopic.php?t=4288609]этой[/url] раздачи, спасибо андр64.
Так же добавлены русские субтитры, найденные в сети.
Используемый софт: MKVtool, BeSweet, Sony Vegas 10
Сэмпл: http://multi-up.com/1053048
Тип релиза: BDRip 720p
Контейнер: MKV
Видео: AVC, 6997 Кбит/сек, 1280x 544, 23.976 fps
Аудио: Russian (Dolby AC3, 2 ch), 192 Kbp
Аудио 2: Finnish, DTS, 1509 kb/s (6 ch), 48 kHz
Формат субтитров: UTF-8
MediaInfo
Matroska
Версия формата : Version 2
Размер файла : 6,71 Гбайт
Продолжительность : 1 ч. 50 м.
Общий поток : 8694 Кбит/сек
Дата кодирования : UTC 2015-06-02 15:37:58
Программа кодирования : mkvmerge v7.5.0 ('Glass Culture') 32bit built on Jan 4 2015 16:37:25
Библиотека кодирования : libebml v1.3.1 + libmatroska v1.4.2
DURATION : 01:49:33.114000000
NUMBER_OF_FRAMES : 775
NUMBER_OF_BYTES : 41064
_STATISTICS_WRITING_APP : mkvmerge v7.5.0 ('Glass Culture') 32bit built on Jan 4 2015 16:37:25
_STATISTICS_WRITING_DATE_UTC : 2015-06-02 15:37:58
_STATISTICS_TAGS : BPS DURATION NUMBER_OF_FRAMES NUMBER_OF_BYTES
Видео
Идентификатор : 1
Формат : AVC
Формат/Информация : Advanced Video Codec
Профиль формата : High@L3.1
Параметр CABAC формата : Да
Параметр ReFrames формата : 5 кадров
Идентификатор кодека : V_MPEG4/ISO/AVC
Продолжительность : 1 ч. 50 м.
Битрейт : 6997 Кбит/сек
Ширина : 1280 пикселей
Высота : 544 пикселя
Соотношение сторон : 2,35:1
Режим частоты кадров : Постоянный
Частота кадров : 23,976 кадра/сек
Цветовое пространство : YUV
Субдискретизация насыщенности : 4:2:0
Битовая глубина : 8 бит
Тип развёртки : Прогрессивная
Бит/(Пиксели*Кадры) : 0.419
Размер потока : 5,26 Гбайт (78%)
Библиотека кодирования : x264 core 116 r2057 0ba8a9c
Настройки программы : cabac=1 / ref=5 / deblock=1:0:0 / analyse=0x3:0x133 / me=umh / subme=7 / psy=1 / psy_rd=1.00:0.00 / mixed_ref=1 / me_range=16 / chroma_me=1 / trellis=1 / 8x8dct=1 / cqm=0 / deadzone=21,11 / fast_pskip=0 / chroma_qp_offset=-2 / threads=6 / sliced_threads=0 / nr=0 / decimate=1 / interlaced=0 / bluray_compat=0 / constrained_intra=0 / bframes=3 / b_pyramid=2 / b_adapt=2 / b_bias=0 / direct=3 / weightb=1 / open_gop=0 / weightp=2 / keyint=250 / keyint_min=23 / scenecut=40 / intra_refresh=0 / rc_lookahead=50 / rc=2pass / mbtree=1 / bitrate=6997 / ratetol=1.0 / qcomp=0.60 / qpmin=0 / qpmax=69 / qpstep=4 / cplxblur=20.0 / qblur=0.5 / ip_ratio=1.40 / aq=1:1.00
Язык : Russian
Default : Нет
Forced : Нет
DURATION : 01:50:28.747000000
NUMBER_OF_FRAMES : 158931
NUMBER_OF_BYTES : 5797752396
_STATISTICS_WRITING_APP : mkvmerge v7.5.0 ('Glass Culture') 32bit built on Jan 4 2015 16:37:25
_STATISTICS_WRITING_DATE_UTC : 2015-06-02 15:37:58
_STATISTICS_TAGS : BPS DURATION NUMBER_OF_FRAMES NUMBER_OF_BYTES
Аудио #1
Идентификатор : 2
Формат : AC-3
Формат/Информация : Audio Coding 3
Расширение режима : CM (complete main)
Параметр Endianness формата : Big
Идентификатор кодека : A_AC3
Продолжительность : 1 ч. 50 м.
Вид битрейта : Постоянный
Битрейт : 192 Кбит/сек
Каналы : 2 канала
Расположение каналов : Front: L R
Частота : 48,0 КГц
Битовая глубина : 16 бит
Метод сжатия : С потерями
Размер потока : 152 Мбайт (2%)
Язык : Russian
Default : Да
Forced : Нет
Аудио #2
Идентификатор : 3
Формат : DTS
Формат/Информация : Digital Theater Systems
Режим : 16
Параметр Endianness формата : Big
Идентификатор кодека : A_DTS
Продолжительность : 1 ч. 50 м.
Вид битрейта : Постоянный
Битрейт : 1509 Кбит/сек
Каналы : 6 каналов
Расположение каналов : Front: L C R, Side: L R, LFE
Частота : 48,0 КГц
Битовая глубина : 24 бит
Метод сжатия : С потерями
Размер потока : 1,16 Гбайт (17%)
Язык : Finnish
Default : Нет
Forced : Нет
Текст #1
Идентификатор : 4
Формат : UTF-8
Идентификатор кодека : S_TEXT/UTF8
Идентификатор кодека/Информация : UTF-8 Plain Text
Язык : Russian
Default : Нет
Forced : Нет
Текст #2
Идентификатор : 5
Формат : UTF-8
Идентификатор кодека : S_TEXT/UTF8
Идентификатор кодека/Информация : UTF-8 Plain Text
Язык : Danish
Default : Нет
Forced : Нет
Текст #3
Идентификатор : 6
Формат : UTF-8
Идентификатор кодека : S_TEXT/UTF8
Идентификатор кодека/Информация : UTF-8 Plain Text
Язык : English
Default : Нет
Forced : Нет
Текст #4
Идентификатор : 7
Формат : UTF-8
Идентификатор кодека : S_TEXT/UTF8
Идентификатор кодека/Информация : UTF-8 Plain Text
Язык : Finnish
Default : Нет
Forced : Нет
Текст #5
Идентификатор : 8
Формат : UTF-8
Идентификатор кодека : S_TEXT/UTF8
Идентификатор кодека/Информация : UTF-8 Plain Text
Язык : Norwegian
Default : Нет
Forced : Нет
Текст #6
Идентификатор : 9
Формат : UTF-8
Идентификатор кодека : S_TEXT/UTF8
Идентификатор кодека/Информация : UTF-8 Plain Text
Язык : Swedish
Default : Нет
Forced : Нет
Скриншоты
Скачать

Скачать торрент!

Как скачивать? · Что такое торрент? · Рейтинг и ограничения

Сайт не распространяет и не хранит электронные версии произведений, а лишь предоставляет доступ к создаваемому пользователями каталогу ссылок на торрент-файлы, которые содержат только списки хеш-сумм

[Профиль] [ЛС]
Показать сообщения:    
Ответить на тему

Текущее время: Сегодня 12:09

Часовой пояс: GMT + 4



Вы не можете начинать темы
Вы не можете отвечать на сообщения
Вы не можете редактировать свои сообщения
Вы не можете удалять свои сообщения
Вы не можете голосовать в опросах
Вы не можете прикреплять файлы к сообщениям
Вы не можете скачивать файлы