Цветные карандаши / Värvipliiatsid (Аво Пайстик / Avo Paistik) [1973, мультфильм, DVDRip]

Ответить на тему
 
Автор Сообщение

user ®

Стаж: 7 лет 7 месяцев

Сообщений: 20008

Пост Пост: #1 от 12-Июн-2015 16:24

[Цитировать]

Цветные карандаши / Värvipliiatsid
Страна: СССР (Эстонская республика)
Жанр: мультфильм
Продолжительность: 00:09:33
Год выпуска: 1973
Перевод: не требуется
Русские субтитры: нет
Режиссёр: Аво Пайстик / Avo Paistik
Описание: Три цветных карандаша рисуют солнце, море и собираются позагорать. Вдруг появляется огрызок чёрного карандаша, который начинает рисовать разные чёрные вещи, чтобы помешать цветным. Но цветные тоже знают, чем ответить...
Качество: DVDRip
Формат: AVI
Видео: 2279 kbps, 720х512 (1.406), 25.000 fps, MPEG-4 Visual (XviD)
Аудио: 128 kbps, 48.0 kHz, 2 channels, MPEG Audio (MP3)
Субтитры: отсутствуют
Подробные технические данные
GeneralComplete name : Värvipliiatsid (1973).aviFormat : AVIFormat/Info : Audio Video InterleaveFile size : 165 MiBDuration : 9mn 33sOverall bit rate : 2 415 KbpsWriting application : VirtualDubMod 1.5.4.1 (build 2178/release)Writing library : VirtualDubMod build 2178/release
VideoID : 0Format : MPEG-4 VisualFormat profile : Advanced Simple@L5Format settings, BVOP : 1Format settings, QPel : NoFormat settings, GMC : No warppointsFormat settings, Matrix : CustomCodec ID : XVIDCodec ID/Hint : XviDDuration : 9mn 33sBit rate : 2 279 KbpsWidth : 720 pixelsHeight : 512 pixelsDisplay aspect ratio : 1.406Frame rate : 25.000 fpsColor space : YUVChroma subsampling : 4:2:0Bit depth : 8 bitsScan type : ProgressiveCompression mode : LossyBits/(Pixel*Frame) : 0.247Stream size : 156 MiB (94%)Writing library : XviD 1.2.1 (UTC 2008-12-04)
AudioID : 1Format : MPEG AudioFormat version : Version 1Format profile : Layer 3Mode : Joint stereoMode extension : MS StereoCodec ID : 55Codec ID/Hint : MP3Duration : 9mn 33sBit rate mode : ConstantBit rate : 128 KbpsChannel(s) : 2 channelsSampling rate : 48.0 KHzCompression mode : LossyStream size : 8.75 MiB (5%)Alignment : Aligned on interleavesInterleave, duration : 80 ms (2.00 video frames)Interleave, preload duration : 504 msWriting library : LAME3.98rEncoding settings : -m j -V 4 -q 2 -lowpass 17 -b 128
Скриншоты
Скачать

Скачать торрент!

Как скачивать? · Что такое торрент? · Рейтинг и ограничения

Сайт не распространяет и не хранит электронные версии произведений, а лишь предоставляет доступ к создаваемому пользователями каталогу ссылок на торрент-файлы, которые содержат только списки хеш-сумм

[Профиль] [ЛС]
Показать сообщения:    
Ответить на тему

Текущее время: Сегодня 20:38

Часовой пояс: GMT + 4



Вы не можете начинать темы
Вы не можете отвечать на сообщения
Вы не можете редактировать свои сообщения
Вы не можете удалять свои сообщения
Вы не можете голосовать в опросах
Вы не можете прикреплять файлы к сообщениям
Вы не можете скачивать файлы