Джордано Бруно (Владимир Гончаров) [1984, мультфильм, TVRip]

Ответить на тему
 
Автор Сообщение

user ®

Стаж: 7 лет 7 месяцев

Сообщений: 20008

Пост Пост: #1 от 12-Июн-2015 04:03

[Цитировать]

Джордано Бруно
Страна: СССР
Производство: Киевнаучфильм
Жанр: мультфильм
Продолжительность: 00:09:58
Год выпуска: 1984
Русские субтитры: нет
Режиссёр: Владимир Гончаров
Роли озвучивали: А. Ганинский, Богдан Ступка
Описание: История, описанная в мультфильме, произошла очень давно, еще в 16 веке. В то время жил и творил, никому не известный исследователь небесных просторов, а именно космоса. Джордано Бруно был новатором своего времени, занимался изучением звезд, планет и всех небесных тел, который находятся вокруг нашей земли. Дело, которым занимался Джордано Бруно, в то время предавалось жестокому гонению, оно считалось неправильным, ведь тогда человечество еще считало, что мир стоит на трех китах, которые в свою очередь стоят на огромной черепахе. В жизни нашего героя было достаточно много достойных поступков, которые даже можно назвать героическими. Нынешнему человеку и в голову бы не пришло, что такие великие открытия могут постегать запреты, ведь то чем занимался Джордано Бруно, позволило человечеству осознать и начать изучать очень важные факты собственного происхождении и о настоящем течении дел. О том, что нас окружает загадочная и не предсказуемая вселенная, что помимо нашей солнечной системы существуют еще много таких же, и что мы возможно не одни, что возможно, где то существует еще одна такая же планета Земля.
Кинопоиск
Качество: VHSRip
Формат: AVI
Видео: 720x544 (1.32:1), 25 fps, XviD MPEG-4 ~1991 kbps avg, 0.203 bit/pixel
Аудио: 44.1 kHz, MPEG Layer 3, 2 ch, ~128.00 kbps avg
Субтитры: Отсутствуют

Подробные технические данные
GeneralComplete name : E:\1\мультики\Джордано Бруно 1984.aviFormat : AVIFormat/Info : Audio Video InterleaveFile size : 152 MiBDuration : 9mn 58sOverall bit rate : 2 129 KbpsWriting application : VirtualDubMod 1.5.10.3 | www.virtualdub-fr.org || (build 2550/release)Writing library : VirtualDubMod build 2550/release
VideoID : 0Format : MPEG-4 VisualFormat profile : Advanced Simple@L5Format settings, BVOP : 2Format settings, QPel : NoFormat settings, GMC : No warppointsFormat settings, Matrix : Default (H.263)Codec ID : XVIDCodec ID/Hint : XviDDuration : 9mn 58sBit rate : 1 991 KbpsWidth : 720 pixelsHeight : 544 pixelsDisplay aspect ratio : 4:3Frame rate : 25.000 fpsColor space : YUVChroma subsampling : 4:2:0Bit depth : 8 bitsScan type : ProgressiveCompression mode : LossyBits/(Pixel*Frame) : 0.203Stream size : 142 MiB (94%)Writing library : XviD 73
AudioID : 1Format : MPEG AudioFormat version : Version 1Format profile : Layer 3Codec ID : 55Codec ID/Hint : MP3Duration : 9mn 58sBit rate mode : ConstantBit rate : 128 KbpsChannel count : 2 channelsSampling rate : 44.1 KHzCompression mode : LossyStream size : 9.13 MiB (6%)Alignment : Split accross interleavesInterleave, duration : 40 ms (1.00 video frame)Interleave, preload duration : 500 msWriting library : LAME3.99rEncoding settings : -m s -V 4 -q 2 -lowpass 17 -b 128
Скриншоты
Скачать

Скачать торрент!

Как скачивать? · Что такое торрент? · Рейтинг и ограничения

Сайт не распространяет и не хранит электронные версии произведений, а лишь предоставляет доступ к создаваемому пользователями каталогу ссылок на торрент-файлы, которые содержат только списки хеш-сумм

[Профиль] [ЛС]
Показать сообщения:    
Ответить на тему

Текущее время: Сегодня 13:37

Часовой пояс: GMT + 4



Вы не можете начинать темы
Вы не можете отвечать на сообщения
Вы не можете редактировать свои сообщения
Вы не можете удалять свои сообщения
Вы не можете голосовать в опросах
Вы не можете прикреплять файлы к сообщениям
Вы не можете скачивать файлы