Октагон / The Octagon (Эрик Карсон / Eric Karson) [1980, США, боевик, BDRemux 1080p] MVO (НТВ+) + AVO (А.Марченко) + AVO (Ю.Живов) + Original Eng

Ответить на тему
 
Автор Сообщение

user ®

Стаж: 7 лет 7 месяцев

Сообщений: 20008

Пост Пост: #1 от 11-Июн-2015 00:12

[Цитировать]

Октагон / The Octagon
Страна: США
Студия: ACG Motion Picture Investment Fund, American Cinema Productions
Жанр: Боевик
Год выпуска: 1980
Продолжительность: 01:44:00
Перевод 1: Профессиональный (многоголосый закадровый) НТВ+
Перевод 2: Авторский (одноголосый закадровый) А.Марченко
Перевод 3: Авторский (одноголосый закадровый) Ю.Живов
Оригинальная аудиодорожка: английский
Cубтитры: нет
Режиссер: Эрик Карсон / Eric Karson
В ролях: Чак Норрис, Карен Карлсон, Ли Ван Клиф, Арт Хиндл, Кэрол Багдасарян, Тадаси Ямасита, Ким Лэнкфорд, Ларри Д. Манн, Курт Грэйсон, Ричард Норт
Описание: Скотт Джеймс, бывший чемпион по каратэ, нанимается в телохранители к богатой женщине Джастин, на которую охотятся ниндзя. Вскоре ему становится известно, что ими верховодит его заклятый враг Сэйкура.
Сэмпл: https://yadi.sk/i/N1p6FkM8h83FJ
Тип релиза: BDRemux 1080p
Контейнер: MKV
Видео: MPEG-4 AVC, 1920x1080, 16:9, 23.976 fps, 35.0 Mbps
Аудио 1: AC3, 2.0 48 kHz 192 kbps, (НТВ+)
Аудио 2: AC3, 2.0, 48 kHz, 192 kbps, моно 2ch, (Марченко), взято по ссылке Alexey17 с [url=http://***/forum/viewtopic.php?t=4542109]http://***/forum/viewtopic.php?t=4542109[/url]
Аудио 3: DTS-HD MA 5.1 48 kHz 2672 kbps 24-bit (DTS Core: 5.1 / 48 kHz / 768 kbps / 24-bit) - (Живов)
Аудио 4: DTS-HD MA 5.1 48 kHz 2834 kbps 24-bit (DTS Core: 5.1 / 48 kHz / 768 kbps / 24-bit) - (English)
Дорожка №3 получена наложением выделенного голоса на центр DTS HD MA.
MediaInfo исходника
General
ID : 1 (0x1)
Complete name : 00000.m2ts
Format : BDAV
Format/Info : Blu-ray Video
File size : 25.8 GiB
Duration : 1h 44mn
Overall bit rate mode : Variable
Overall bit rate : 35.6 Mbps
Maximum Overall bit rate : 35.5 Mbps
Video
ID : 4113 (0x1011)
Menu ID : 1 (0x1)
Format : AVC
Format/Info : Advanced Video Codec
Format profile : High@L4.1
Format settings, CABAC : Yes
Format settings, ReFrames : 3 frames
Codec ID : 27
Duration : 1h 44mn
Bit rate mode : Variable
Maximum bit rate : 35.0 Mbps
Width : 1 920 pixels
Height : 1 080 pixels
Display aspect ratio : 16:9
Frame rate : 23.976 fps
Standard : NTSC
Color space : YUV
Chroma subsampling : 4:2:0
Bit depth : 8 bits
Scan type : Progressive
Color primaries : BT.709
Transfer characteristics : BT.709
Matrix coefficients : BT.709
Audio #1
ID : 4352 (0x1100)
Menu ID : 1 (0x1)
Format : DTS
Format/Info : Digital Theater Systems
Format profile : MA / Core
Mode : 16
Format settings, Endianness : Big
Muxing mode : Stream extension
Codec ID : 134
Duration : 1h 44mn
Bit rate mode : Variable
Bit rate : Unknown / 768 Kbps
Channel(s) : 6 channels
Channel positions : Front: L C R, Side: L R, LFE
Sampling rate : 48.0 KHz
Bit depth : 24 bits
Compression mode : Lossless / Lossy
Language : English
Audio #2
ID : 4353 (0x1101)
Menu ID : 1 (0x1)
Format : DTS
Format/Info : Digital Theater Systems
Format profile : MA / Core
Mode : 16
Format settings, Endianness : Big
Muxing mode : Stream extension
Codec ID : 134
Duration : 1h 44mn
Bit rate mode : Variable
Bit rate : Unknown / 768 Kbps
Channel(s) : 6 channels
Channel positions : Front: L C R, Side: L R, LFE
Sampling rate : 48.0 KHz
Bit depth : 24 bits
Compression mode : Lossless / Lossy
Language : Russian
Audio #3
ID : 4354 (0x1102)
Menu ID : 1 (0x1)
Format : AC-3
Format/Info : Audio Coding 3
Mode extension : CM (complete main)
Format settings, Endianness : Big
Codec ID : 129
Duration : 1h 44mn
Bit rate mode : Constant
Bit rate : 192 Kbps
Channel(s) : 2 channels
Channel positions : Front: L R
Sampling rate : 48.0 KHz
Bit depth : 16 bits
Compression mode : Lossy
Stream size : 143 MiB (1%)
Language : Russian
MediaInfo
General
Unique ID : 309065831575467312006711445373913531733 (0xE883E9FAB64DEEFD236EE6B31F8E0555)
Complete name : The.Octagon.1980.BD-Remux.mkv
Format : Matroska
Format version : Version 4 / Version 2
File size : 24.6 GiB
Duration : 1h 44mn
Overall bit rate mode : Variable
Overall bit rate : 33.9 Mbps
Encoded date : UTC 2015-06-02 15:57:28
Writing application : mkvmerge v6.7.0 ('Back to the Ground') 64bit built on Jan 9 2014 18:03:17
Writing library : libebml v1.3.0 + libmatroska v1.4.1
Video
ID : 1
Format : AVC
Format/Info : Advanced Video Codec
Format profile : High@L4.1
Format settings, CABAC : Yes
Format settings, ReFrames : 3 frames
Codec ID : V_MPEG4/ISO/AVC
Duration : 1h 44mn
Bit rate mode : Variable
Maximum bit rate : 35.0 Mbps
Width : 1 920 pixels
Height : 1 080 pixels
Display aspect ratio : 16:9
Frame rate mode : Constant
Frame rate : 23.976 fps
Standard : NTSC
Color space : YUV
Chroma subsampling : 4:2:0
Bit depth : 8 bits
Scan type : Progressive
Title : Director: Eric Karson
Language : English
Default : Yes
Forced : No
Color primaries : BT.709
Transfer characteristics : BT.709
Matrix coefficients : BT.709
Audio #1
ID : 2
Format : AC-3
Format/Info : Audio Coding 3
Mode extension : CM (complete main)
Format settings, Endianness : Big
Codec ID : A_AC3
Duration : 1h 44mn
Bit rate mode : Constant
Bit rate : 192 Kbps
Channel(s) : 2 channels
Channel positions : Front: L R
Sampling rate : 48.0 KHz
Bit depth : 16 bits
Compression mode : Lossy
Stream size : 143 MiB (1%)
Title : Russian DD 2.0 48 kHz 192 kbps - закадровый (многоголосый НТВ+)
Language : Russian
Default : Yes
Forced : No
Audio #2
ID : 3
Format : AC-3
Format/Info : Audio Coding 3
Mode extension : CM (complete main)
Format settings, Endianness : Big
Codec ID : A_AC3
Duration : 1h 44mn
Bit rate mode : Constant
Bit rate : 192 Kbps
Channel(s) : 2 channels
Channel positions : Front: L R
Sampling rate : 48.0 KHz
Bit depth : 16 bits
Compression mode : Lossy
Stream size : 143 MiB (1%)
Title : AC3, 2.0, 48 kHz, 192 kbps, 16 bit, Авторский (одноголосый закадровый) Александр Марченко
Language : Russian
Default : No
Forced : No
Audio #3
ID : 4
Format : DTS
Format/Info : Digital Theater Systems
Format profile : MA / Core
Mode : 16
Format settings, Endianness : Big
Codec ID : A_DTS
Duration : 1h 44mn
Bit rate mode : Variable
Bit rate : Unknown / 768 Kbps
Channel(s) : 6 channels
Channel positions : Front: L C R, Side: L R, LFE
Sampling rate : 48.0 KHz
Bit depth : 24 bits
Compression mode : Lossless / Lossy
Title : (DTS Core: 5.1 / 48 kHz / 768 kbps / 24-bit) - закадровый (авторский одноголосый, Живов)
Language : Russian
Default : No
Forced : No
Audio #4
ID : 5
Format : DTS
Format/Info : Digital Theater Systems
Format profile : MA / Core
Mode : 16
Format settings, Endianness : Big
Codec ID : A_DTS
Duration : 1h 44mn
Bit rate mode : Variable
Bit rate : Unknown / 768 Kbps
Channel(s) : 6 channels
Channel positions : Front: L C R, Side: L R, LFE
Sampling rate : 48.0 KHz
Bit depth : 24 bits
Compression mode : Lossless / Lossy
Title : (DTS Core: 5.1 / 48 kHz / 768 kbps / 24-bit)
Language : English
Default : No
Forced : No
Скриншоты
Скачать

Скачать торрент!

Как скачивать? · Что такое торрент? · Рейтинг и ограничения

Сайт не распространяет и не хранит электронные версии произведений, а лишь предоставляет доступ к создаваемому пользователями каталогу ссылок на торрент-файлы, которые содержат только списки хеш-сумм

[Профиль] [ЛС]
Показать сообщения:    
Ответить на тему

Текущее время: Сегодня 06:59

Часовой пояс: GMT + 4



Вы не можете начинать темы
Вы не можете отвечать на сообщения
Вы не можете редактировать свои сообщения
Вы не можете удалять свои сообщения
Вы не можете голосовать в опросах
Вы не можете прикреплять файлы к сообщениям
Вы не можете скачивать файлы