Заводила / Kingpin (Бобби Фаррелли, Питер Фаррелли / Bobby Farrelly, Peter Farrelly) [1996, США, комедия, спорт, BDRip 720p] [Расширенная версия / Extended Cut] 4x AVO (Гаврилов, Санаев, Сербин) + Original Eng + Sub Eng

Ответить на тему
 
Автор Сообщение

user ®

Стаж: 7 лет 7 месяцев

Сообщений: 20008

Пост Пост: #1 от 10-Июн-2015 02:27

[Цитировать]

Заводила / Kingpin Страна: США
Студия: Rysher Entertainment, Motion Picture Corporation of America (MPCA)
Жанр: комедия, спорт
Год выпуска: 1996
Продолжительность: 01:57:14
Перевод 1: Авторский (одноголосый закадровый) Андрей Гаврилов (новый)
Перевод 2: Авторский (одноголосый закадровый) Андрей Гаврилов (старый)
Перевод 3: Авторский (одноголосый закадровый) Павел Санаев
Перевод 4: Авторский (одноголосый закадровый) Юрий Сербин
Cубтитры: английские SRT
Оригинальная аудиодорожка: Английский
Режиссер: Бобби Фаррелли, Питер Фаррелли / Bobby Farrelly, Peter Farrelly
В ролях: Вуди Харрельсон, Рэнди Куэйд, Ванесса Энджел, Билл Мюррей, Крис Эллиот, Уильям Джордан, Ричард Тайсон, Лин Шэй, Зен Геснер, Пруденс Райт Холмс
Описание: Он не пьет, не курит, не водит машину, не общается с женщинами и в жизни не заработал ни копейки. Но если он не раздобудет полмиллиона долларов, у его семьи отнимут землю. Приходится принять предложение подозрительного типа поехать на чемпионат мира по боулингу…

Качество видео: BDRip 720p
Формат видео: MKV
Видео кодек: H264
Аудио кодек: AC3
Видео: 1280x546 (2.35:1), 23,976 fps, ~9715 kbps avg, 0.580 bit/pixel
Аудио 1: 48 kHz, AC3 Dolby Digital, 3/2 (L,C,R,l,r) + LFE ch, ~448 kbps - Гаврилов (новый)
Аудио 2: 48 kHz, AC3 Dolby Digital, 2/0 (L,R) ch, ~192 kbps - Гаврилов (старый)
Аудио 3: 48 kHz, AC3 Dolby Digital, 3/2 (L,C,R,l,r) + LFE ch, ~448 kbps - Санаев
Аудио 4: 48 kHz, AC3 Dolby Digital, 2/0 (L,R) ch, ~192 kbps - Сербин
Аудио 5: 48 kHz, AC3 Dolby Digital, 3/2 (L,C,R,l,r) + LFE ch, ~448 kbps - Оригинал

Доп.инфо
рип VietHD
за перевод Гаврилова (новый) спасибо foxlight, Gross1978, uchitel538, chontvari, Hattori Hanzo, пуля,xerman13, kondratzx, masta, axl-dr, Guyver, Iceman, ZeDOK, Kastro, jorn2, luka69, Savely, Valen, fly32, ylnian1986, vik19662007, а также Luсian666, который поделился голосом.
за дорогу Гаврилова (старый) спасибо budulai-8
за дорогу Санаева спасибо Sermonster
за дорогу Сербина спасибо soulstorm
т.к. переводы Гаврилова (старый) и Сербина были на театральную версию, имеются вставки. в Сербине вставки Санаева, в Гаврилове (с) Гаврилова (н)
MediaInfo
Полное имя : Заводила 1996 ЕС.mkv
Формат : Matroska
Версия формата : Version 4 / Version 2
Размер файла : 9,56 Гбайт
Продолжительность : 1 ч. 57 м.
Общий поток : 11,7 Мбит/сек
Дата кодирования : UTC 2015-06-08 07:16:25
Программа кодирования : mkvmerge v7.1.0 ('Good Love') 64bit built on Jul 27 2014 13:06:55
Библиотека кодирования : libebml v1.3.0 + libmatroska v1.4.1
DURATION : 01:57:06.016000000
NUMBER_OF_FRAMES : 219563
NUMBER_OF_BYTES : 168624384
_STATISTICS_WRITING_APP : mkvmerge v7.1.0 ('Good Love') 64bit built on Jul 27 2014 13:06:55
_STATISTICS_WRITING_DATE_UTC : 2015-06-08 07:16:25
_STATISTICS_TAGS : BPS DURATION NUMBER_OF_FRAMES NUMBER_OF_BYTES
Видео
Идентификатор : 1
Формат : AVC
Формат/Информация : Advanced Video Codec
Профиль формата : High@L4.1
Параметр CABAC формата : Да
Параметр ReFrames формата : 11 кадров
Идентификатор кодека : V_MPEG4/ISO/AVC
Продолжительность : 1 ч. 57 м.
Битрейт : 9715 Кбит/сек
Ширина : 1280 пикселей
Высота : 546 пикселей
Соотношение сторон : 2,35:1
Соотношение сторон в оригинале : 2,35:1
Режим частоты кадров : Постоянный
Частота кадров : 23,976 кадра/сек
Цветовое пространство : YUV
Субдискретизация насыщенности : 4:2:0
Битовая глубина : 8 бит
Тип развёртки : Прогрессивная
Бит/(Пиксели*Кадры) : 0.580
Размер потока : 7,96 Гбайт (83%)
Библиотека кодирования : x264 core 142 r2431+42 c69a006 tMod [8-bit@4:2:0 X86_64]
Настройки программы : cabac=1 / ref=11 / deblock=1:-3:-3 / analyse=0x3:0x133 / me=umh / subme=10 / psy=1 / fade_compensate=0.00 / psy_rd=1.20:0.00 / mixed_ref=1 / me_range=24 / chroma_me=1 / trellis=2 / 8x8dct=1 / cqm=0 / deadzone=21,11 / fast_pskip=1 / chroma_qp_offset=-2 / threads=12 / lookahead_threads=2 / sliced_threads=0 / nr=0 / decimate=1 / interlaced=0 / bluray_compat=0 / constrained_intra=0 / fgo=0 / bframes=7 / b_pyramid=2 / b_adapt=2 / b_bias=0 / direct=3 / weightb=1 / open_gop=0 / weightp=2 / keyint=250 / keyint_min=23 / scenecut=40 / intra_refresh=0 / rc=crf / mbtree=0 / crf=16.0000 / qcomp=0.65 / qpmin=0:0:0 / qpmax=69:69:69 / qpstep=4 / ip_ratio=1.40 / pb_ratio=1.30 / aq=4:0.60 / aq-sensitivity=10.00 / aq-factor=1.00:1.00:1.00 / aq2=0 / aq3=0
Язык : English
Default : Да
Forced : Нет
Коэффициенты матрицы : BT.709
DURATION : 01:57:14.403000000
NUMBER_OF_FRAMES : 168657
NUMBER_OF_BYTES : 8745092239
_STATISTICS_WRITING_APP : mkvmerge v7.1.0 ('Good Love') 64bit built on Jul 27 2014 13:06:55
_STATISTICS_WRITING_DATE_UTC : 2015-06-08 07:16:25
_STATISTICS_TAGS : BPS DURATION NUMBER_OF_FRAMES NUMBER_OF_BYTES
Аудио #1
Идентификатор : 2
Формат : AC-3
Формат/Информация : Audio Coding 3
Расширение режима : CM (complete main)
Параметр Endianness формата : Big
Идентификатор кодека : A_AC3
Продолжительность : 1 ч. 57 м.
Вид битрейта : Постоянный
Битрейт : 448 Кбит/сек
Каналы : 6 каналов
Расположение каналов : Front: L C R, Side: L R, LFE
Частота : 48,0 КГц
Битовая глубина : 16 бит
Метод сжатия : С потерями
Размер потока : 376 Мбайт (4%)
Заголовок : Gavrilov (new)
Язык : Russian
Default : Да
Forced : Нет
Аудио #2
Идентификатор : 3
Формат : AC-3
Формат/Информация : Audio Coding 3
Расширение режима : CM (complete main)
Параметр Endianness формата : Big
Идентификатор кодека : A_AC3
Продолжительность : 1 ч. 57 м.
Вид битрейта : Постоянный
Битрейт : 192 Кбит/сек
Каналы : 2 канала
Расположение каналов : Front: L R
Частота : 48,0 КГц
Битовая глубина : 16 бит
Метод сжатия : С потерями
Размер потока : 161 Мбайт (2%)
Заголовок : Gavrilov (old)
Язык : Russian
Default : Нет
Forced : Нет
Аудио #3
Идентификатор : 4
Формат : AC-3
Формат/Информация : Audio Coding 3
Расширение режима : CM (complete main)
Параметр Endianness формата : Big
Идентификатор кодека : A_AC3
Продолжительность : 1 ч. 57 м.
Вид битрейта : Постоянный
Битрейт : 448 Кбит/сек
Каналы : 6 каналов
Расположение каналов : Front: L C R, Side: L R, LFE
Частота : 48,0 КГц
Битовая глубина : 16 бит
Метод сжатия : С потерями
Размер потока : 376 Мбайт (4%)
Заголовок : Sanaev
Язык : Russian
Default : Нет
Forced : Нет
Аудио #4
Идентификатор : 5
Формат : AC-3
Формат/Информация : Audio Coding 3
Расширение режима : CM (complete main)
Параметр Endianness формата : Big
Идентификатор кодека : A_AC3
Продолжительность : 1 ч. 57 м.
Вид битрейта : Постоянный
Битрейт : 192 Кбит/сек
Каналы : 2 канала
Расположение каналов : Front: L R
Частота : 48,0 КГц
Битовая глубина : 16 бит
Метод сжатия : С потерями
Размер потока : 161 Мбайт (2%)
Заголовок : Serbin
Язык : Russian
Default : Нет
Forced : Нет
Аудио #5
Идентификатор : 6
Формат : AC-3
Формат/Информация : Audio Coding 3
Расширение режима : CM (complete main)
Параметр Endianness формата : Big
Идентификатор кодека : A_AC3
Продолжительность : 1 ч. 57 м.
Вид битрейта : Постоянный
Битрейт : 448 Кбит/сек
Каналы : 6 каналов
Расположение каналов : Front: L C R, Side: L R, LFE
Частота : 48,0 КГц
Битовая глубина : 16 бит
Метод сжатия : С потерями
Размер потока : 376 Мбайт (4%)
Заголовок : Original
Язык : English
Default : Нет
Forced : Нет
Текст
Идентификатор : 7
Формат : UTF-8
Идентификатор кодека : S_TEXT/UTF8
Идентификатор кодека/Информация : UTF-8 Plain Text
Язык : English
Default : Нет
Forced : Нет
Меню
00:00:00.000 : en:00:00:00.000
00:06:11.079 : en:00:06:11.079
00:10:21.454 : en:00:10:21.454
00:14:29.285 : en:00:14:29.285
00:26:29.421 : en:00:26:29.421
00:35:10.483 : en:00:35:10.483
00:43:16.052 : en:00:43:16.052
00:50:17.056 : en:00:50:17.056
00:55:35.832 : en:00:55:35.832
01:01:58.214 : en:01:01:58.214
01:08:38.698 : en:01:08:38.698
01:14:12.323 : en:01:14:12.323
01:23:46.688 : en:01:23:46.688
01:33:00.992 : en:01:33:00.992
01:43:59.900 : en:01:43:59.900
01:52:34.414 : en:01:52:34.414
Скриншоты
Скачать

Скачать торрент!

Как скачивать? · Что такое торрент? · Рейтинг и ограничения

Сайт не распространяет и не хранит электронные версии произведений, а лишь предоставляет доступ к создаваемому пользователями каталогу ссылок на торрент-файлы, которые содержат только списки хеш-сумм

[Профиль] [ЛС]
Показать сообщения:    
Ответить на тему

Текущее время: Сегодня 04:23

Часовой пояс: GMT + 4



Вы не можете начинать темы
Вы не можете отвечать на сообщения
Вы не можете редактировать свои сообщения
Вы не можете удалять свои сообщения
Вы не можете голосовать в опросах
Вы не можете прикреплять файлы к сообщениям
Вы не можете скачивать файлы