Исходный код / Source Code (Дункан Джонс / Duncan Jones) [2011, США, Канада, фантастика, боевик, триллер, BDRemux 1080p] Dub + AVO (Гаврилов) + 2 VO (Дасевич, Zamez) + Ukr (Dub, MVO) + Sub Rus, Eng + Original Eng

Ответить на тему
 
Автор Сообщение

user ®

Стаж: 7 лет 7 месяцев

Сообщений: 20008

Пост Пост: #1 от 10-Июн-2015 02:27

[Цитировать]

Исходный код / Source Code
Страна: США, Канада
Жанр: фантастика, боевик, триллер
Год выпуска: 2011
Продолжительность: 01:33:13
Перевод 1: Профессиональный (дублированный)
Перевод 2: Авторский (одноголосый закадровый) Гаврилов
Перевод 3: Одноголосый (закадровый) Дасевич
Перевод 4: Одноголосый (закадровый) Zamez
Cубтитры: Русские (Voronine + Voronine SDH), Английские (Full + SDH)
Оригинальная аудиодорожка: Английский--Режиссер: Дункан Джонс / Duncan Jones--В ролях: Джейк Джилленхол, Мишель Монахэн, Вера Фармига, Джеффри Райт, Расселл Питерс, Джеймс А. Вудс, Майкл Арден, Кас Анвар, Джо Кобден, Брент Скэгфорд, Крэйг Томас, Гордон Мастен, Сьюзэн Бэйн, Паула Жан Хиксон, Линкольн Уорд, Кайл Гейтхаус, Альберт Кван, Энн Дэй-Джонс, Клариса Бирн, Мэтт Холлэнд, Фредерик Де Гранпре, Скотт Бакула, Лаура Этвуд, Райнальд Лапьер, Сэмюэл Медоуз...--Описание: Солдат по имени Коултер мистическим образом оказывается в теле неизвестного мужчины, погибшего в железнодорожной катастрофе. Коултер вынужден переживать чужую смерть снова и снова до тех пор, пока не поймет, кто — зачинщик катастрофы.--Доп. информация: Kinopoisk | IMDB | Sample | --Качество видео: BDRemux 1080p
Формат видео: MKV
Видео: MPEG4/ISO/AVC, 1920x1080 (16:9), 27884 Kbps, 23.976 fps.
Аудио 1: AC3, 3/2 (L,C,R,l,r) + LFE ch, 48 kHz, ~640 kbps |Дубляж|
Аудио 2: DTS-HD MA 5.1, 48 kHz, 3814 kbps, 24-bit (DTS, 5.1, 48 kHz, 1509 kbps, 24-bit) |AVO Гаврилов|
Аудио 3: DTS-HD MA 5.1, 48 kHz, 3814 kbps, 24-bit (DTS, 5.1, 48 kHz, 1509 kbps, 24-bit) |VO Дасевич|
Аудио 4: DTS-HD MA 5.1, 48 kHz, 3395 kbps, 24-bit (DTS, 5.1, 48 kHz, 1509 kbps, 24-bit) |VO Zamez|
Аудио 5: DTS-HD MA 5.1, 48 kHz, 2250 kbps, 24-bit (DTS, 5.1, 48 kHz, 1509 kbps, 24-bit) |Дубляж|
Аудио 6: AC3, 2/0 (L,R) ch, 48 kHz, ~192 kbps |MVO 1+1|
Аудио 7: DTS-HD MA 5.1, 48 kHz, 3782 kbps, 24-bit (DTS, 5.1, 48 kHz, 1509 kbps, 24-bit) |Original|
Аудио 8: AC3, 2/0 (L,R) ch, 48 kHz, ~192 kbps |Commentary with Director Duncan Jones, Actor Jake Gyllenhaal, and Writer Ben Ripley|
Формат субтитров: softsub (SRT)
Скриншоты MediaInfo
General
Unique ID : 246566557943312565135061783157205171560 (0xB97EFDE18AD0E111B01E4805EF2CFD68)
Complete name : Source Code (2011) BDRemux.mkv
Format : Matroska
Format version : Version 4 / Version 2
File size : 29.9 GiB
Duration : 1h 33mn
Overall bit rate mode : Variable
Overall bit rate : 46.0 Mbps
Movie name : Исходный код / Source Code (2011)
Encoded date : UTC 2015-06-08 09:17:40
Writing application : mkvmerge v7.8.0 ('River Man') 64bit built on Mar 27 2015 16:31:37
Writing library : libebml v1.3.1 + libmatroska v1.4.2
DURATION : 01:24:20.417000000
NUMBER_OF_FRAMES : 1227
NUMBER_OF_BYTES : 41372
_STATISTICS_WRITING_APP : mkvmerge v7.8.0 ('River Man') 64bit built on Mar 27 2015 16:31:37
_STATISTICS_WRITING_DATE_UT : 2015-06-08 09:17:40
_STATISTICS_TAGS : BPS DURATION NUMBER_OF_FRAMES NUMBER_OF_BYTES
Video
ID : 1
Format : AVC
Format/Info : Advanced Video Codec
Format profile : High@L4.1
Format settings, CABAC : Yes
Format settings, ReFrames : 2 frames
Format settings, GOP : M=1, N=10
Codec ID : V_MPEG4/ISO/AVC
Duration : 1h 33mn
Bit rate mode : Variable
Width : 1 920 pixels
Height : 1 080 pixels
Display aspect ratio : 16:9
Frame rate mode : Constant
Frame rate : 23.976 fps
Color space : YUV
Chroma subsampling : 4:2:0
Bit depth : 8 bits
Scan type : Progressive
Title : Source Code
Language : English
Default : Yes
Forced : No
Audio #1
ID : 2
Format : AC-3
Format/Info : Audio Coding 3
Mode extension : CM (complete main)
Format settings, Endianness : Big
Codec ID : A_AC3
Duration : 1h 33mn
Bit rate mode : Constant
Bit rate : 640 Kbps
Channel(s) : 6 channels
Channel positions : Front: L C R, Side: L R, LFE
Sampling rate : 48.0 KHz
Bit depth : 16 bits
Compression mode : Lossy
Stream size : 427 MiB (1%)
Title : Дубляж
Language : Russian
Default : Yes
Forced : No
Audio #2
ID : 3
Format : DTS
Format/Info : Digital Theater Systems
Format profile : MA / Core
Mode : 16
Format settings, Endianness : Big
Codec ID : A_DTS
Duration : 1h 33mn
Bit rate mode : Variable
Bit rate : Unknown / 1 509 Kbps
Channel(s) : 6 channels
Channel positions : Front: L C R, Side: L R, LFE
Sampling rate : 48.0 KHz
Bit depth : 24 bits
Compression mode : Lossless / Lossy
Title : AVO. А. Гаврилов
Language : Russian
Default : No
Forced : No
Audio #3
ID : 4
Format : DTS
Format/Info : Digital Theater Systems
Format profile : MA / Core
Mode : 16
Format settings, Endianness : Big
Codec ID : A_DTS
Duration : 1h 33mn
Bit rate mode : Variable
Bit rate : Unknown / 1 509 Kbps
Channel(s) : 6 channels
Channel positions : Front: L C R, Side: L R, LFE
Sampling rate : 48.0 KHz
Bit depth : 24 bits
Compression mode : Lossless / Lossy
Title : VO. А. Дасевич
Language : Russian
Default : No
Forced : No
Audio #4
ID : 5
Format : DTS
Format/Info : Digital Theater Systems
Format profile : MA / Core
Mode : 16
Format settings, Endianness : Big
Codec ID : A_DTS
Duration : 1h 33mn
Bit rate mode : Variable
Bit rate : Unknown / 1 509 Kbps
Channel(s) : 6 channels
Channel positions : Front: L C R, Side: L R, LFE
Sampling rate : 48.0 KHz
Bit depth : 24 bits
Compression mode : Lossless / Lossy
Title : VO. Zamez
Language : Russian
Default : No
Forced : No
Audio #5
ID : 6
Format : DTS
Format/Info : Digital Theater Systems
Format profile : MA / Core
Mode : 16
Format settings, Endianness : Big
Codec ID : A_DTS
Duration : 1h 33mn
Bit rate mode : Variable
Bit rate : Unknown / 1 509 Kbps
Channel(s) : 6 channels
Channel positions : Front: L C R, Side: L R, LFE
Sampling rate : 48.0 KHz
Bit depth : 16 bits
Compression mode : Lossless / Lossy
Title : Дубляж
Language : Ukrainian
Default : No
Forced : No
Audio #6
ID : 7
Format : AC-3
Format/Info : Audio Coding 3
Mode extension : CM (complete main)
Format settings, Endianness : Big
Codec ID : A_AC3
Duration : 1h 33mn
Bit rate mode : Constant
Bit rate : 192 Kbps
Channel(s) : 2 channels
Channel positions : Front: L R
Sampling rate : 48.0 KHz
Bit depth : 16 bits
Compression mode : Lossy
Stream size : 128 MiB (0%)
Title : MVO. 1+1
Language : Ukrainian
Default : No
Forced : No
Audio #7
ID : 8
Format : DTS
Format/Info : Digital Theater Systems
Format profile : MA / Core
Mode : 16
Format settings, Endianness : Big
Codec ID : A_DTS
Duration : 1h 33mn
Bit rate mode : Variable
Bit rate : Unknown / 1 509 Kbps
Channel(s) : 6 channels
Channel positions : Front: L C R, Side: L R, LFE
Sampling rate : 48.0 KHz
Bit depth : 24 bits
Compression mode : Lossless / Lossy
Title : Original
Language : English
Default : No
Forced : No
Audio #8
ID : 9
Format : AC-3
Format/Info : Audio Coding 3
Format profile : Dolby Digital
Mode extension : CM (complete main)
Format settings, Endianness : Big
Codec ID : A_AC3
Duration : 1h 33mn
Bit rate mode : Constant
Bit rate : 192 Kbps
Channel(s) : 2 channels
Channel positions : Front: L R
Sampling rate : 48.0 KHz
Bit depth : 16 bits
Compression mode : Lossy
Stream size : 128 MiB (0%)
Title : Commentary with Director Duncan Jones, Actor Jake Gyllenhaal, and Writer Ben Ripley
Language : English
Default : No
Forced : No
Text #1
ID : 10
Format : UTF-8
Codec ID : S_TEXT/UTF8
Codec ID/Info : UTF-8 Plain Text
Title : Voronine
Language : Russian
Default : No
Forced : No
Text #2
ID : 11
Format : UTF-8
Codec ID : S_TEXT/UTF8
Codec ID/Info : UTF-8 Plain Text
Title : Voronine, SDH
Language : Russian
Default : No
Forced : No
Text #3
ID : 12
Format : UTF-8
Codec ID : S_TEXT/UTF8
Codec ID/Info : UTF-8 Plain Text
Title : Full
Language : English
Default : No
Forced : No
Text #4
ID : 13
Format : UTF-8
Codec ID : S_TEXT/UTF8
Codec ID/Info : UTF-8 Plain Text
Title : SDH
Language : English
Default : No
Forced : No
Menu
00:00:00.000 : :Chapter 01
00:06:52.870 : :Chapter 02
00:11:03.663 : :Chapter 03
00:17:20.038 : :Chapter 04
00:21:06.556 : :Chapter 05
00:28:36.797 : :Chapter 06
00:31:50.364 : :Chapter 07
00:36:19.885 : :Chapter 08
00:41:35.742 : :Chapter 09
00:47:21.838 : :Chapter 10
00:52:30.188 : :Chapter 11
00:54:32.101 : :Chapter 12
00:58:01.226 : :Chapter 13
01:03:02.320 : :Chapter 14
01:09:39.550 : :Chapter 15
01:15:12.046 : :Chapter 16
01:21:49.654 : :Chapter 17
01:24:41.117 : :Chapter 18
01:33:12.336 : :Chapter 19
Скачать

Скачать торрент!

Как скачивать? · Что такое торрент? · Рейтинг и ограничения

Сайт не распространяет и не хранит электронные версии произведений, а лишь предоставляет доступ к создаваемому пользователями каталогу ссылок на торрент-файлы, которые содержат только списки хеш-сумм

[Профиль] [ЛС]
Показать сообщения:    
Ответить на тему

Текущее время: Сегодня 05:12

Часовой пояс: GMT + 4



Вы не можете начинать темы
Вы не можете отвечать на сообщения
Вы не можете редактировать свои сообщения
Вы не можете удалять свои сообщения
Вы не можете голосовать в опросах
Вы не можете прикреплять файлы к сообщениям
Вы не можете скачивать файлы