Красивая и Безумная / Beautiful & Twisted (Кристофер Залла / Christopher Zalla) [2015, США, триллер, драма, криминал, WEB-DLRip] MVO

Ответить на тему
 
Автор Сообщение

user ®

Стаж: 7 лет 7 месяцев

Сообщений: 20008

Пост Пост: #1 от 10-Июн-2015 02:27

[Цитировать]

Красивая и Безумная / Beautiful & Twisted- Страна: США
Жанр: триллер, драма, криминал
Год выпуска: 2015
Продолжительность: 01:26:15
Перевод: Профессиональный (многоголосый закадровый)
Cубтитры: нет
Режиссер: Кристофер Залла \ Christopher Zalla
В ролях: Роб Лоу, Пас Вега, Кэндис Берген, Сейшелл Гэбриел, Джуд Чикколелла, Мишель Херд, Уолтер ФонтЛеРой, Сони Брингас, Zachary Rifkin, Austin Wakefield
Основано на реальных событиях.
Описание: В июле 2009 года Бен Новак, унаследовавший сеть отелей Fontainebleau, был жестоко убит в номере отеля в пригороде Нью-Йорка. Своими ужасающими садистскими деталями страшное убийство вызвало мгновенный интерес средств массовой информации. Говорили, что зверское убийство было спланировано женщиной, пытавшейся уничтожить своего мужа и завладеть его состоянием.-
Сэмпл
Качество видео: WEB-DLRip
Формат видео: AVI
Видео: MPEG-4 1878 Кбит/сек 720 x 400 (1.800) at 23.976 fps
Аудио: AC-3 at 384 Кбит/сек 6 каналов, 48,0 КГц
MediaInfo
Формат : AVI
Формат/Информация : Audio Video Interleave
Размер файла : 1,37 Гбайт
Продолжительность : 1 ч. 26 м.
Общий поток : 2271 Кбит/сек
Название фильма : Krasivaja i bezumnaja.2015.P.WEB-DLRip.ELEKTRI4KA.Uniongang.tv
Режиссёр : Дракоша
Программа кодирования : VirtualDubMod 1.5.10.3 | www.virtualdub-fr.org || (build 2550/release)
Правообладатель : UNIONGANG&RUSTORRENTS
Видео
Идентификатор : 0
Формат : MPEG-4 Visual
Профиль формата : Advanced Simple@L5
Параметр BVOP формата : 3
Параметр QPel формата : Нет
Параметр GMC формата : Без точки перехода
Параметр матрицы формата : Default (H.263)
Идентификатор кодека : XVID
Идентификатор кодека/Подсказка : XviD
Продолжительность : 1 ч. 26 м.
Битрейт : 1878 Кбит/сек
Ширина : 720 пикселей
Высота : 400 пикселей
Соотношение сторон : 16:9
Частота кадров : 23,976 кадра/сек
Цветовое пространство : YUV
Субдискретизация насыщенности : 4:2:0
Битовая глубина : 8 бит
Тип развёртки : Прогрессивная
Метод сжатия : С потерями
Бит/(Пиксели*Кадры) : 0.272
Размер потока : 1,13 Гбайт (83%)
Библиотека кодирования : XviD 73
Аудио
Идентификатор : 1
Формат : AC-3
Формат/Информация : Audio Coding 3
Расширение режима : CM (complete main)
Параметр Endianness формата : Big
Идентификатор кодека : 2000
Продолжительность : 1 ч. 26 м.
Вид битрейта : Постоянный
Битрейт : 384 Кбит/сек
Каналы : 6 каналов
Расположение каналов : Front: L C R, Side: L R, LFE
Частота : 48,0 КГц
Битовая глубина : 16 бит
Метод сжатия : С потерями
Размер потока : 237 Мбайт (17%)
Выравнивание : Разделение по промежуткам
Продолжительность промежутка : 42 мс. (1,00 видеокадр)
Время предзагрузки промежутка : 500 мс.
Скриншот c названием фильма Скриншоты
Скачать

Скачать торрент!

Как скачивать? · Что такое торрент? · Рейтинг и ограничения

Сайт не распространяет и не хранит электронные версии произведений, а лишь предоставляет доступ к создаваемому пользователями каталогу ссылок на торрент-файлы, которые содержат только списки хеш-сумм

[Профиль] [ЛС]
Показать сообщения:    
Ответить на тему

Текущее время: Сегодня 05:06

Часовой пояс: GMT + 4



Вы не можете начинать темы
Вы не можете отвечать на сообщения
Вы не можете редактировать свои сообщения
Вы не можете удалять свои сообщения
Вы не можете голосовать в опросах
Вы не можете прикреплять файлы к сообщениям
Вы не можете скачивать файлы