Заплати другому / Pay It Forward (Мими Ледер / Mimi Leder) [2000, США, драма, WEB-DL 1080p] Dub + AVO (Живов) + Ukr + MVO (ВГТРК) + Original Eng + Sub Rus, Eng

Ответить на тему
 
Автор Сообщение

user ®

Стаж: 7 лет 7 месяцев

Сообщений: 20008

Пост Пост: #1 от 09-Июн-2015 01:42

[Цитировать]

Заплати другому / Pay It Forward
Страна: США
Студия: Bel Air Entertainment, Tapestry Films, Warner Bros. Pictures
Жанр: драма
Год выпуска: 2000
Продолжительность: 2:03:23
Перевод 1: Профессиональный (дублированный)
Перевод 2: Авторский (одноголосый закадровый) Живов
Перевод 3: Профессиональный (многоголосый закадровый) ВГТРК
Cубтитры: Русские, Английские
Оригинальная аудиодорожка: английский
Режиссер: Мими Ледер / Mimi Leder
В ролях: Кевин Спейси
Хелен Хант
Хэйли Джоэл Осмент
Джей Мор
Джеймс Кэвизел
Джон Бон Джови
Энджи Дикинсон
Дэвид Рэмси
Гари Вернтц
Коллин Флинн
Описание: Представьте себе. Вы оказываете кому-либо существенную услугу и просите этого человека отблагодарить не вас, а трех других людей, которые, в свою очередь, отблагодарят еще троих, и так далее, в мировом масштабе, распространяя доброту и тепло. Насколько действенной может оказаться подобная сердечная идея? Ученик седьмого класса Тревор МакКинни решил это проверить, начав цепочку добра.
Сэмпл
Тип релиза: WEB-DL 1080p
Контейнер: MKV
Видео: AVC/H.264, 1906x1076 (16:9), 4872 Кбит/с, 23.976 fps
Аудио:
1: Russian, AC3, 48 KHz, 384 Кбит/с, 5.1 ch (Dub)
2: Russian, AC3, 48 KHz, 384 Кбит/с, 5.1 ch (AVO Живов)
3: Ukrainian, AC3, 48 KHz, 384 Кбит/с, 5.1 ch (MVO Украинский)
4: Russian, AC3, 48 KHz, 192 Кбит/с, 1.0 ch (MVO ВГТРК)
5: English, AC3, 48 KHz, 384 Кбит/с, 5.1 ch
Субтитры: Russian, English, softsub (SRT)
MediaInfo
General
Unique ID : 244879238926790632712500514491257552936 (0xB83A06A16F15E51792DFF769D7778028)
Complete name : D:\Pay It Forward (1080p HD).mkv
Format : Matroska
Format version : Version 2
File size : 5.80 GiB
Duration : 2h 3mn
Overall bit rate : 6 734 Kbps
Encoded date : UTC 2015-06-06 18:31:48
Writing application : mkvmerge v5.8.0 ('No Sleep / Pillow') built on Sep 2 2012 15:37:04
Writing library : libebml v1.2.3 + libmatroska v1.3.0
Video
ID : 1
Format : AVC
Format/Info : Advanced Video Codec
Format profile : High@L4
Format settings, CABAC : Yes
Format settings, ReFrames : 4 frames
Format settings, GOP : N=2
Codec ID : V_MPEG4/ISO/AVC
Duration : 2h 3mn
Bit rate : 4 872 Kbps
Width : 1 906 pixels
Height : 1 076 pixels
Display aspect ratio : 16:9
Frame rate mode : Constant
Frame rate : 23.976 fps
Color space : YUV
Chroma subsampling : 4:2:0
Bit depth : 8 bits
Scan type : Progressive
Bits/(Pixel*Frame) : 0.099
Stream size : 4.20 GiB (72%)
Default : Yes
Forced : No
Color range : Limited
Color primaries : BT.709
Transfer characteristics : BT.709
Matrix coefficients : BT.709
Audio #1
ID : 2
Format : AC-3
Format/Info : Audio Coding 3
Mode extension : CM (complete main)
Format settings, Endianness : Big
Codec ID : A_AC3
Duration : 2h 3mn
Bit rate mode : Constant
Bit rate : 384 Kbps
Channel(s) : 6 channels
Channel positions : Front: L C R, Side: L R, LFE
Sampling rate : 48.0 KHz
Compression mode : Lossy
Stream size : 339 MiB (6%)
Title : Дубляж
Language : Russian
Default : Yes
Forced : No
Audio #2
ID : 3
Format : AC-3
Format/Info : Audio Coding 3
Mode extension : CM (complete main)
Format settings, Endianness : Big
Codec ID : A_AC3
Duration : 2h 3mn
Bit rate mode : Constant
Bit rate : 384 Kbps
Channel(s) : 6 channels
Channel positions : Front: L C R, Side: L R, LFE
Sampling rate : 48.0 KHz
Compression mode : Lossy
Stream size : 339 MiB (6%)
Title : AVO Живов
Language : Russian
Default : No
Forced : No
Audio #3
ID : 4
Format : AC-3
Format/Info : Audio Coding 3
Mode extension : CM (complete main)
Format settings, Endianness : Big
Codec ID : A_AC3
Duration : 2h 3mn
Bit rate mode : Constant
Bit rate : 384 Kbps
Channel(s) : 6 channels
Channel positions : Front: L C R, Side: L R, LFE
Sampling rate : 48.0 KHz
Compression mode : Lossy
Stream size : 339 MiB (6%)
Title : MVO Украинский
Language : Ukrainian
Default : No
Forced : No
Audio #4
ID : 5
Format : AC-3
Format/Info : Audio Coding 3
Mode extension : CM (complete main)
Format settings, Endianness : Big
Codec ID : A_AC3
Duration : 2h 3mn
Bit rate mode : Constant
Bit rate : 192 Kbps
Channel(s) : 1 channel
Channel positions : Front: C
Sampling rate : 48.0 KHz
Compression mode : Lossy
Stream size : 169 MiB (3%)
Title : MVO ВГТРК
Language : Russian
Default : No
Forced : No
Audio #5
ID : 6
Format : AC-3
Format/Info : Audio Coding 3
Mode extension : CM (complete main)
Format settings, Endianness : Big
Codec ID : A_AC3
Duration : 2h 3mn
Bit rate mode : Constant
Bit rate : 384 Kbps
Channel(s) : 6 channels
Channel positions : Front: L C R, Side: L R, LFE
Sampling rate : 48.0 KHz
Compression mode : Lossy
Stream size : 339 MiB (6%)
Language : English
Default : No
Forced : No
Text #1
ID : 7
Format : UTF-8
Codec ID : S_TEXT/UTF8
Codec ID/Info : UTF-8 Plain Text
Language : Russian
Default : No
Forced : No
Text #2
ID : 8
Format : UTF-8
Codec ID : S_TEXT/UTF8
Codec ID/Info : UTF-8 Plain Text
Language : English
Default : No
Forced : No
Скриншоты
Скачать

Скачать торрент!

Как скачивать? · Что такое торрент? · Рейтинг и ограничения

Сайт не распространяет и не хранит электронные версии произведений, а лишь предоставляет доступ к создаваемому пользователями каталогу ссылок на торрент-файлы, которые содержат только списки хеш-сумм

[Профиль] [ЛС]
Показать сообщения:    
Ответить на тему

Текущее время: Сегодня 07:55

Часовой пояс: GMT + 4



Вы не можете начинать темы
Вы не можете отвечать на сообщения
Вы не можете редактировать свои сообщения
Вы не можете удалять свои сообщения
Вы не можете голосовать в опросах
Вы не можете прикреплять файлы к сообщениям
Вы не можете скачивать файлы