Последние рыцари / Last Knights (Казуаки Кирия / Kazuaki Kiriya) [2015, Чехия, Драма, боевик, приключения, BDRip] Dub

Ответить на тему
 
Автор Сообщение

user ®

Стаж: 7 лет 7 месяцев

Сообщений: 20008

Пост Пост: #1 от 09-Июн-2015 01:42

[Цитировать]

Последние рыцари / Last Knights
«Битва за честь, война за справедливость»
- Год выпуска: 2015
Выпущено: Чехия, Корея Южная / Luka Productions
Жанр: драма, боевик, приключения
Продолжительность: 01:49:54
Перевод: Профессиональный (полное дублирование) BD RUS
Cубтитры: нет-Режиссер:
Казуаки Кирия / Kazuaki Kiriya-В ролях:
Клайв Оуэн (Raiden), Морган Фриман (Bartok), Клифф Кёртис (Lt. Cortez), Аксель Хенни (Gezza mott), Цуёси Ихара (Ito), Шоре Агдашлу (Maria), Пейман Моаади (Emperor), Ан Сон Ги (Auguste), Пак Си Ен (Hannah), Дэниэл Адегбойега (Rodrigo)-Описание:
Фильм рассказывает о падшем воине, который восстает против коррумпированного правителя-садиста, чтобы отомстить за своего обесчещенного господина.-Релиз групп [url=http://***/forum/viewtopic.php?t=1677970] [/url] | | IMDB | КиноПоиск | Сэмпл |-Качество: BDRip [Blu-ray Disc | 1080i | HDCLUB]
Формат: AVI
Видео: 720x304 (2.37:1), 25 fps, XviD build 73 ~1513 kbps avg, 0.28 bit/pixel
Аудио: 48 kHz, AC3 Dolby Digital, 3/2 (L,C,R,l,r) + LFE ch, ~384.00 kbps avg
-Скриншоты MediaInfo
General
Complete name                            : D:\Poslednie_rytsari_2015_BDRip_by_Dalemake.avi
Format                                   : AVI
Format/Info                              : Audio Video Interleave
File size                                : 1.46 GiB
Duration                                 : 1h 49mn
Overall bit rate                         : 1 907 Kbps
Writing application                      : VirtualDubMod 1.5.10.3 | www.virtualdub-fr.org || (build 2550/release)
Writing library                          : VirtualDubMod build 2550/release
Video
ID                                       : 0
Format                                   : MPEG-4 Visual
Format profile                           : Advanced Simple@L5
Format settings, BVOP                    : 1
Format settings, QPel                    : No
Format settings, GMC                     : No warppoints
Format settings, Matrix                  : Custom
Codec ID                                 : XVID
Codec ID/Hint                            : XviD
Duration                                 : 1h 49mn
Bit rate                                 : 1 514 Kbps
Width                                    : 720 pixels
Height                                   : 304 pixels
Display aspect ratio                     : 2.35:1
Frame rate                               : 25.000 fps
Color space                              : YUV
Chroma subsampling                       : 4:2:0
Bit depth                                : 8 bits
Scan type                                : Progressive
Compression mode                         : Lossy
Bits/(Pixel*Frame)                       : 0.277
Stream size                              : 1.16 GiB (79%)
Writing library                          : XviD 73
Audio
ID                                       : 1
Format                                   : AC-3
Format/Info                              : Audio Coding 3
Mode extension                           : CM (complete main)
Format settings, Endianness              : Big
Codec ID                                 : 2000
Duration                                 : 1h 49mn
Bit rate mode                            : Constant
Bit rate                                 : 384 Kbps
Channel(s)                               : 6 channels
Channel positions                        : Front: L C R, Side: L R, LFE
Sampling rate                            : 48.0 KHz
Bit depth                                : 16 bits
Compression mode                         : Lossy
Stream size                              : 302 MiB (20%)
Alignment                                : Split accross interleaves
Interleave, duration                     : 40 ms (1.00 video frame)
Interleave, preload duration             : 500 ms
Сравнение
[url=http://***/forum/viewtopic.php?t=5018290]http://***/forum/viewtopic.php?t=5018290[/url]
http://screenshotcomparison.com/comparison/130565
Цитата:
Продолжительность: 01:49:44
В самом начале подрезали рип на пару секунд, куда еще делись 8 секунд не понятно, исходник тот же, рип от Twi7ter, который он позже перезалил...
Цитата:
Требуемые размеры релизов в разделе:
745Mb/1.46Gb/2.18Gb/2.91Gb/4.37Gb
Допускается погрешность весовых категорий в меньшую и большую сторону: 693-753Mb, 1.35Gb-1.48Gb, 2.05Gb- 2.20Gb, 2.73Gb-2.94Gb, 4.32Gb-4.37Gb
Релизы, размеры которых будут нарушать допустимые параметры, будут закрываться.
Как вообще пропустили рип такого размера...-
Скачать

Скачать торрент!

Как скачивать? · Что такое торрент? · Рейтинг и ограничения

Сайт не распространяет и не хранит электронные версии произведений, а лишь предоставляет доступ к создаваемому пользователями каталогу ссылок на торрент-файлы, которые содержат только списки хеш-сумм

[Профиль] [ЛС]
Показать сообщения:    
Ответить на тему

Текущее время: Сегодня 02:27

Часовой пояс: GMT + 4



Вы не можете начинать темы
Вы не можете отвечать на сообщения
Вы не можете редактировать свои сообщения
Вы не можете удалять свои сообщения
Вы не можете голосовать в опросах
Вы не можете прикреплять файлы к сообщениям
Вы не можете скачивать файлы