Последние рыцари / Last Knights (Казуаки Кирия / Kazuaki Kiriya) [2015 г., Чехия, Южная Корея, драма, боевик, приключения, BDRip-AVC] Dub + Sub Eng + Original Eng

Ответить на тему
 
Автор Сообщение

user ®

Стаж: 7 лет 7 месяцев

Сообщений: 20008

Пост Пост: #1 от 08-Июн-2015 16:24

[Цитировать]

Последние рыцари / Last Knights-«Битва за честь, война за справедливость»- -Страна: Чехия, Южная Корея
Жанр: драма, боевик, приключения
Год выпуска: 2015
Продолжительность: 01:49:54

Мировая премьера: 3 апреля 2015
Дата выхода Blu-Ray: 2 июня 2015, «Lizard Cinema Trade»--Перевод: Профессиональный (дублированный)
Оригинальная аудиодорожка: Английская
Cубтитры: Английские (Full, SDH, SDH-COLORED)--Режиссер: Казуаки Кирия / Kazuaki Kiriya
--В ролях: Клайв Оуэн, Морган Фриман, Клифф Кёртис, Аксель Хенни, Цуёси Ихара, Шоре Агдашлу, Пейман Моаади, Ан Сон Ги, Пак Си Ен, Дэниэл Адегбойега...--Описание: Средневековье, междоусобные распри раздирают королевство на мелкие анклавы, их правители наращивают собственные военные силы. Лишь истинный благородный воин — Король Барток — видит силу и будущее в единстве. При поддержке своих преданных и закаленных в сражениях рыцарей, он способен объединить земли. Но коварные враги уничтожают короля. И тогда его верные рыцари во имя высшей справедливости и отмщения чести своего господина выступают на штурм самой защищенной крепости королевства. Они готовятся взять реванш ценою собственных жизней.-- --MPAA: R | Sample |--Тип релиза: [url=http://***/forum/viewtopic.php?t=5018895]BDRip[/url] AVC
Контейнер: MKV
Видео: MPEG4/AVC, 1084x454, 25.000 fps, 1945 kbps avg, 0.158 bit/pixel.
Аудио 1: AC3 Dolby Digital Audio, 3/2 (L,C,R,l,r) + LFE ch, 48 kHz, ~448 kbps avg
Аудио 2: AC3 Dolby Digital Audio, 3/2 (L,C,R,l,r) + LFE ch, 48 kHz, ~448 kbps avg
Формат субтитров: softsub (SRT)
-MediaInfo
General
Unique ID : 226288152538493087608133787499187079121 (0xAA3D834DA30BAD36A03B88065F4F07D1)
Complete name : Last Knights (2015).mkv
Format : Matroska
Format version : Version 4 / Version 2
File size : 2.18 GiB
Duration : 1h 49mn
Overall bit rate : 2 843 Kbps
Movie name : Последние рыцари / Last Knights (2015)
Encoded date : UTC 2015-06-07 18:21:41
Writing application : mkvmerge v7.8.0 ('River Man') 64bit built on Mar 27 2015 16:31:37
Writing library : libebml v1.3.1 + libmatroska v1.4.2
Attachements : cover.png
DURATION : 01:42:07.882000000
NUMBER_OF_FRAMES : 856
NUMBER_OF_BYTES : 34477
_STATISTICS_WRITING_APP : mkvmerge v7.8.0 ('River Man') 64bit built on Mar 27 2015 16:31:37
_STATISTICS_WRITING_DATE_UT : 2015-06-07 18:21:41
_STATISTICS_TAGS : BPS DURATION NUMBER_OF_FRAMES NUMBER_OF_BYTES
Video
ID : 1
Format : AVC
Format/Info : Advanced Video Codec
Format profile : High@L4.1
Format settings, CABAC : Yes
Format settings, ReFrames : 10 frames
Codec ID : V_MPEG4/ISO/AVC
Duration : 1h 49mn
Bit rate : 1 945 Kbps
Width : 1 084 pixels
Height : 454 pixels
Display aspect ratio : 2.40:1
Frame rate mode : Constant
Frame rate : 25.000 fps
Color space : YUV
Chroma subsampling : 4:2:0
Bit depth : 8 bits
Scan type : Progressive
Bits/(Pixel*Frame) : 0.158
Stream size : 1.45 GiB (66%)
Writing library : x264 core 146 r2538 121396c
Encoding settings : cabac=1 / ref=10 / deblock=1:-2:-2 / analyse=0x3:0x113 / me=umh / subme=11 / psy=1 / psy_rd=1.05:0.10 / mixed_ref=1 / me_range=48 / chroma_me=1 / trellis=2 / 8x8dct=1 / cqm=0 / deadzone=21,11 / fast_pskip=0 / chroma_qp_offset=-3 / threads=9 / lookahead_threads=2 / sliced_threads=0 / nr=0 / decimate=1 / interlaced=0 / bluray_compat=0 / constrained_intra=0 / bframes=11 / b_pyramid=2 / b_adapt=2 / b_bias=0 / direct=3 / weightb=1 / open_gop=0 / weightp=2 / keyint=250 / keyint_min=23 / scenecut=40 / intra_refresh=0 / rc_lookahead=60 / rc=2pass / mbtree=0 / bitrate=1945 / ratetol=1.0 / qcomp=0.70 / qpmin=0 / qpmax=69 / qpstep=4 / cplxblur=20.0 / qblur=0.5 / vbv_maxrate=14000 / vbv_bufsize=14000 / nal_hrd=none / filler=0 / ip_ratio=1.35 / pb_ratio=1.25 / aq=1:0.80
Language : English
Default : Yes
Forced : No
DURATION : 01:49:54.560000000
NUMBER_OF_FRAMES : 164864
NUMBER_OF_BYTES : 1602839777
_STATISTICS_WRITING_APP : mkvmerge v7.8.0 ('River Man') 64bit built on Mar 27 2015 16:31:37
_STATISTICS_WRITING_DATE_UT : 2015-06-07 18:21:41
_STATISTICS_TAGS : BPS DURATION NUMBER_OF_FRAMES NUMBER_OF_BYTES
Audio #1
ID : 2
Format : AC-3
Format/Info : Audio Coding 3
Mode extension : CM (complete main)
Format settings, Endianness : Big
Codec ID : A_AC3
Duration : 1h 49mn
Bit rate mode : Constant
Bit rate : 448 Kbps
Channel(s) : 6 channels
Channel positions : Front: L C R, Side: L R, LFE
Sampling rate : 48.0 KHz
Bit depth : 16 bits
Compression mode : Lossy
Stream size : 352 MiB (16%)
Title : Дубляж
Language : Russian
Default : Yes
Forced : No
Audio #2
ID : 3
Format : AC-3
Format/Info : Audio Coding 3
Mode extension : CM (complete main)
Format settings, Endianness : Big
Codec ID : A_AC3
Duration : 1h 49mn
Bit rate mode : Constant
Bit rate : 448 Kbps
Channel(s) : 6 channels
Channel positions : Front: L C R, Side: L R, LFE
Sampling rate : 48.0 KHz
Bit depth : 16 bits
Compression mode : Lossy
Stream size : 352 MiB (16%)
Title : Original
Language : English
Default : No
Forced : No
Text #1
ID : 4
Format : UTF-8
Codec ID : S_TEXT/UTF8
Codec ID/Info : UTF-8 Plain Text
Title : Full
Language : English
Default : No
Forced : No
Text #2
ID : 5
Format : UTF-8
Codec ID : S_TEXT/UTF8
Codec ID/Info : UTF-8 Plain Text
Title : SDH
Language : English
Default : No
Forced : No
Text #3
ID : 6
Format : UTF-8
Codec ID : S_TEXT/UTF8
Codec ID/Info : UTF-8 Plain Text
Title : SDH-Colored
Language : English
Default : No
Forced : No
Menu
00:02:55.000 : en:Chapter1
00:08:02.000 : en:Chapter2
00:13:00.000 : en:Chapter3
00:19:55.000 : en:Chapter4
00:35:36.000 : en:Chapter5
00:41:43.000 : en:Chapter6
00:45:12.000 : en:Chapter7
00:49:00.000 : en:Chapter7
01:02:34.000 : en:Chapter8
01:13:32.000 : en:Chapter9
01:27:49.000 : en:Chapter10
01:34:19.000 : en:Chapter11
01:43:44.000 : en:Chapter12
Скриншоты
Скачать

Скачать торрент!

Как скачивать? · Что такое торрент? · Рейтинг и ограничения

Сайт не распространяет и не хранит электронные версии произведений, а лишь предоставляет доступ к создаваемому пользователями каталогу ссылок на торрент-файлы, которые содержат только списки хеш-сумм

[Профиль] [ЛС]
Показать сообщения:    
Ответить на тему

Текущее время: Сегодня 08:13

Часовой пояс: GMT + 4



Вы не можете начинать темы
Вы не можете отвечать на сообщения
Вы не можете редактировать свои сообщения
Вы не можете удалять свои сообщения
Вы не можете голосовать в опросах
Вы не можете прикреплять файлы к сообщениям
Вы не можете скачивать файлы