Бесконечность / Infini (Шейн Эббесс / Shane Abbess) [2015, Австралия, фантастика, триллер, драма, WEB-DL 720p] DVO (RAIM & NASTR) + Sub Eng + Original Eng

Ответить на тему
 
Автор Сообщение

user ®

Стаж: 7 лет 7 месяцев

Сообщений: 20008

Пост Пост: #1 от 08-Июн-2015 00:57

[Цитировать]

Бесконечность / Infini
Страна: Австралия
Студия: Storm Vision Entertainment, Eclectik Vision, Storm Alley Entertainment
Жанр: фантастика, триллер, драма
Год выпуска: 2015
Продолжительность: 01:50:42
Перевод: Любительский (двухголосый закадровый) RAIM & NASTR
Cубтитры: английские
Оригинальная аудиодорожка: английский
Режиссер: Шейн Эббесс / Shane Abbess
В ролях: Дэниэл МакФерсон, Грэйс Хуанг, Люк Хемсворт, Брен Фостер, Люк Форд, Дуэйн Стивенсон, Луиса Миньоне, Тесс Хобрич, Гарри Павлидис, Кевин Коуплэнд...
Описание: Элитный спасательный отряд переброшен на удаленный горнодобывающий комплекс, чтобы спасти единственного выжившего человека, после биологической катастрофы. Но никто даже представить не мог, насколько окажется сложной поставленная задача и с чем придется столкнуться небольшому отряду спасателей. Что произошло на станции, что именно там добывалось, почему пришлось почти полностью отключить системы жизнеобеспечения, что случилось с людьми, которые там находились, остался ли кто-нибудь в живых, нужна ли кому-то помощь, с чем придется столкнуться отряду и какие решения придется принимать в столь суровых условиях. Смогут ли они вернуться домой разгадав все эти загадки или им суждено сгинуть в этом холодном уголке, такой бескрайней и суровой, но одновременно, такой неизведанной и прекрасной, притягивающей своей неизвестностью и величием, вселенной.
Сэмпл: http://sendfile.su/1126179
Тип релиза: WEB-DL 720p
Контейнер: MKV

Видео: MPEG4 Video (H264), 1280x532, 23.976fps, 3 983 Kbps, 2.40:1
Аудио 1: Ru, Audio: Dolby AC3 48000Hz stereo 192kbps
Аудио 2: En, Audio: Dolby AC3 48000Hz 6ch 384kbps
MediaInfo
General
Unique ID : 198285548267801814983240822532609837754 (0x952C6851949D3DADB30D46D0A0DA8ABA)
Complete name : F:\Infini.2015.L2.WEB-DL.720p.mkv
Format : Matroska
Format version : Version 4 / Version 2
File size : 3.60 GiB
Duration : 1h 50mn
Overall bit rate : 4 652 Kbps
Encoded date : UTC 2015-05-23 14:32:23
Writing application : mkvmerge v6.1.0 ('Old Devil') built on Mar 4 2013 09:10:42
Writing library : libebml v1.3.0 + libmatroska v1.4.0
Video
ID : 1
Format : AVC
Format/Info : Advanced Video Codec
Format profile : Main@L3.1
Format settings, CABAC : No
Format settings, ReFrames : 2 frames
Codec ID : V_MPEG4/ISO/AVC
Duration : 1h 50mn
Bit rate : 3 983 Kbps
Width : 1 280 pixels
Height : 532 pixels
Display aspect ratio : 2.40:1
Frame rate mode : Constant
Frame rate : 23.976 fps
Color space : YUV
Chroma subsampling : 4:2:0
Bit depth : 8 bits
Scan type : Progressive
Bits/(Pixel*Frame) : 0.244
Stream size : 3.08 GiB (86%)
Language : English
Default : Yes
Forced : No
Color range : Limited
Color primaries : BT.709
Transfer characteristics : BT.709
Matrix coefficients : BT.709
Audio #1
ID : 2
Format : AC-3
Format/Info : Audio Coding 3
Mode extension : CM (complete main)
Format settings, Endianness : Big
Codec ID : A_AC3
Duration : 1h 50mn
Bit rate mode : Constant
Bit rate : 192 Kbps
Channel(s) : 2 channels
Channel positions : Front: L R
Sampling rate : 48.0 KHz
Bit depth : 16 bits
Compression mode : Lossy
Stream size : 152 MiB (4%)
Language : Russian
Default : Yes
Forced : No
Audio #2
ID : 3
Format : AC-3
Format/Info : Audio Coding 3
Mode extension : CM (complete main)
Format settings, Endianness : Big
Codec ID : A_AC3
Duration : 1h 50mn
Bit rate mode : Constant
Bit rate : 384 Kbps
Channel(s) : 6 channels
Channel positions : Front: L C R, Side: L R, LFE
Sampling rate : 48.0 KHz
Bit depth : 16 bits
Compression mode : Lossy
Stream size : 304 MiB (8%)
Language : English
Default : No
Forced : No
Text
ID : 4
Format : UTF-8
Codec ID : S_TEXT/UTF8
Codec ID/Info : UTF-8 Plain Text
Language : English
Default : No
Forced : No
Menu
00:00:00.000 : en:1
00:05:18.000 : en:2
00:11:49.000 : en:3
00:21:54.000 : en:4
00:31:17.000 : en:5
00:45:56.000 : en:6
00:58:56.000 : en:7
01:09:06.000 : en:8
01:17:21.000 : en:9
01:26:42.000 : en:10
01:33:14.000 : en:11
01:44:54.000 : en:12
Скриншоты
Скачать

Скачать торрент!

Как скачивать? · Что такое торрент? · Рейтинг и ограничения

Сайт не распространяет и не хранит электронные версии произведений, а лишь предоставляет доступ к создаваемому пользователями каталогу ссылок на торрент-файлы, которые содержат только списки хеш-сумм

[Профиль] [ЛС]
Показать сообщения:    
Ответить на тему

Текущее время: Сегодня 04:22

Часовой пояс: GMT + 4



Вы не можете начинать темы
Вы не можете отвечать на сообщения
Вы не можете редактировать свои сообщения
Вы не можете удалять свои сообщения
Вы не можете голосовать в опросах
Вы не можете прикреплять файлы к сообщениям
Вы не можете скачивать файлы