Голографический человек / Hologram Man (Ричард Пепин / Richard Pepin) [1995, США, фантастика, боевик, BDRip 720p] DVO (НТВ) + AVO (Андрей Гаврилов) + Original Eng

Ответить на тему
 
Автор Сообщение

user ®

Стаж: 7 лет 7 месяцев

Сообщений: 20008

Пост Пост: #1 от 08-Июн-2015 00:57

[Цитировать]

Голографический человек / Hologram Man
Страна: США
Жанр: фантастика, боевик
Год выпуска: 1995
Продолжительность: 01:41:10
-
Перевод 1: Профессиональный (двухголосый закадровый) НТВ
Перевод 2: Авторский (одноголосый закадровый) Андрей Гаврилов
Cубтитры: нет
Оригинальная аудиодорожка: английский
-
Режиссер: Ричард Пепин / Richard Pepin
В ролях: Джо Лара, Ивэн Лури, Майкл Нури, Джон Эймос, Тина Арнинг, Тоди Бернард, Род Бритт, Чак Бутто, Джозеф Кампанелла, Алекс Корд
-
Описание: Действие фильма происходит в США в Лос-Анджелесе в отдалённом будущем. Городом управляет некая «Калифорнийская корпорация», во главе которой стоит Эдвард Джеймсон. Корпорация фактически захватила город, узурпировав права граждан. Противостоит корпорации Норман Гэллагер по прозвищу Слэш. В чём-то Норман прав, но он поступает как террорист — убивает часть сотрудников корпорации, губернатора Хэмптона, а также одного из полицейских — Веса Стриклэнда. Поймать же Нормана удаётся полицейскому-новичку Декоде, для которого убитый Вес был лучшим другом и напарником. Норман Гэллагер получает тюремный срок, но не в простой тюрьме, а в голографической. В этой тюрьме находится мозг Гэллагера и его гологоафический образ. На бывшего террориста пытаются воздействовать и перевоспитать его. Программа биоперсонального улучшения рассчитана на 5 лет. Через это время бывшего террориста должны выпустить, перепрограммировав его мозг. Но друзьям Нормана удаётся похитить его образ и мозг из голографической тюрьмы до конца срока, когда его ещё не успели перепрограммировать. Теперь Слэш снова на свободе, кроме того он обладает сверхспособностями — ведь он нематериальная голограмма и может проходить через стены и огонь, а пули и гранотомёты не причиняют ему никакого вреда. Слэш хочет отомстить тому, кто его арестовал — Декоде. В перестрелке ему фактически удаётся убить полицейского, но ему помогает его подруга Натали, которая тоже делает его голограммой. И теперь Декода обладает теми же способностями, что и Слэш. Он может сразиться с голографическим преступником один на один, нейтрализовать и остановить его.
-
Доп. информация: Дорожка с НТВ отсюда [url=http://***/forum/viewtopic.php?t=4790975]http://***/forum/viewtopic.php?t=4790975[/url]
-
Сэмпл: https://www.sendspace.com/file/9dive7
-
Тип релиза: BDRip 720p
Контейнер: MKV
Видео: 1280x720p (16:9), 23.976 fps, 5 546 Kbps
Аудио 1: русский / AC3 / 2.0 / 48 kHz / 192 kbps / 16 bit || DVO
Аудио 2: русский / AC3 / 2.0 / 48 kHz / 192 kbps / 16 bit || AVO
Аудио 3: английский / AC3 / 5.1 / 48 kHz / 448 kbps / 16 bit || Original
Главы: есть
MediaInfo
General
Unique ID : 219251812057098468063464690927449655269 (0xA4F25CEEE4300274823086E93517C7E5)
Complete name : C:\Users\ALEX\Downloads\Фильмы\HD\Hologram.Man.1995.BDRip.720p.2xRus.Eng.Chpt.mkv
Format : Matroska
Format version : Version 4 / Version 2
File size : 4.51 GiB
Duration : 1h 41mn
Overall bit rate : 6 382 Kbps
Movie name : = Hologram Man BDRip 720p by SC Kosmos =
Encoded date : UTC 2015-06-07 09:32:58
Writing application : mkvmerge v6.6.0 ('The Edge Of The In Between') built on Dec 1 2013 17:55:00
Writing library : libebml v1.3.0 + libmatroska v1.4.1
Video
ID : 1
Format : AVC
Format/Info : Advanced Video Codec
Format profile : High@L4.1
Format settings, CABAC : Yes
Format settings, ReFrames : 9 frames
Codec ID : V_MPEG4/ISO/AVC
Duration : 1h 41mn
Bit rate : 5 546 Kbps
Width : 1 280 pixels
Height : 720 pixels
Display aspect ratio : 16:9
Frame rate mode : Constant
Frame rate : 23.976 fps
Color space : YUV
Chroma subsampling : 4:2:0
Bit depth : 8 bits
Scan type : Progressive
Bits/(Pixel*Frame) : 0.251
Stream size : 3.83 GiB (85%)
Title : Hologram Man BDRip by SC Kosmos
Writing library : x264 core 142 r2431 ac76440
Encoding settings : cabac=1 / ref=9 / deblock=1:-3:-3 / analyse=0x3:0x113 / me=umh / subme=11 / psy=1 / psy_rd=1.00:0.00 / mixed_ref=1 / me_range=32 / chroma_me=1 / trellis=2 / 8x8dct=1 / cqm=0 / deadzone=21,11 / fast_pskip=0 / chroma_qp_offset=-2 / threads=12 / lookahead_threads=1 / sliced_threads=0 / nr=0 / decimate=1 / interlaced=0 / bluray_compat=0 / constrained_intra=0 / bframes=12 / b_pyramid=2 / b_adapt=1 / b_bias=0 / direct=3 / weightb=1 / open_gop=0 / weightp=2 / keyint=240 / keyint_min=23 / scenecut=40 / intra_refresh=0 / rc_lookahead=40 / rc=2pass / mbtree=0 / bitrate=5546 / ratetol=1.0 / qcomp=0.60 / qpmin=0 / qpmax=69 / qpstep=4 / cplxblur=20.0 / qblur=0.5 / vbv_maxrate=50000 / vbv_bufsize=50000 / nal_hrd=none / filler=0 / ip_ratio=1.40 / pb_ratio=1.30 / aq=1:1.00 / zones=140300,145539,b=0.25
Language : German
Default : Yes
Forced : No
Audio #1
ID : 2
Format : AC-3
Format/Info : Audio Coding 3
Mode extension : CM (complete main)
Format settings, Endianness : Big
Codec ID : A_AC3
Duration : 1h 41mn
Bit rate mode : Constant
Bit rate : 192 Kbps
Channel(s) : 2 channels
Channel positions : Front: L R
Sampling rate : 48.0 KHz
Bit depth : 16 bits
Compression mode : Lossy
Stream size : 139 MiB (3%)
Title : DVO (НТВ)
Language : Russian
Default : Yes
Forced : No
Audio #2
ID : 3
Format : AC-3
Format/Info : Audio Coding 3
Mode extension : CM (complete main)
Format settings, Endianness : Big
Codec ID : A_AC3
Duration : 1h 41mn
Bit rate mode : Constant
Bit rate : 192 Kbps
Channel(s) : 2 channels
Channel positions : Front: L R
Sampling rate : 48.0 KHz
Bit depth : 16 bits
Compression mode : Lossy
Stream size : 139 MiB (3%)
Title : AVO (Андрей Гаврилов)
Language : Russian
Default : No
Forced : No
Audio #3
ID : 4
Format : AC-3
Format/Info : Audio Coding 3
Mode extension : CM (complete main)
Format settings, Endianness : Big
Codec ID : A_AC3
Duration : 1h 41mn
Bit rate mode : Constant
Bit rate : 448 Kbps
Channel(s) : 6 channels
Channel positions : Front: L C R, Side: L R, LFE
Sampling rate : 48.0 KHz
Bit depth : 16 bits
Compression mode : Lossy
Stream size : 324 MiB (7%)
Title : Original
Language : English
Default : No
Forced : No
Menu
00:00:00.000 : en:Chapter 01
00:00:00.375 : en:Chapter 02
00:15:26.884 : en:Chapter 03
00:30:36.376 : en:Chapter 04
00:43:32.610 : en:Chapter 05
00:59:43.037 : en:Chapter 06
01:14:58.494 : en:Chapter 07
01:23:56.573 : en:Chapter 08
01:30:28.381 : en:Chapter 09
Скриншоты
Скачать

Скачать торрент!

Как скачивать? · Что такое торрент? · Рейтинг и ограничения

Сайт не распространяет и не хранит электронные версии произведений, а лишь предоставляет доступ к создаваемому пользователями каталогу ссылок на торрент-файлы, которые содержат только списки хеш-сумм

[Профиль] [ЛС]
Показать сообщения:    
Ответить на тему

Текущее время: Сегодня 09:02

Часовой пояс: GMT + 4



Вы не можете начинать темы
Вы не можете отвечать на сообщения
Вы не можете редактировать свои сообщения
Вы не можете удалять свои сообщения
Вы не можете голосовать в опросах
Вы не можете прикреплять файлы к сообщениям
Вы не можете скачивать файлы