Паранормальное явление 2 / Paranormal Activity 2 (Тод Уильямс / Tod Williams) [2010, США, ужасы, TeleSynch] DUB

Ответить на тему
 
Автор Сообщение

user ®

Стаж: 7 лет 7 месяцев

Сообщений: 20008

Пост Пост: #1 от 01-Ноя-2010 12:40

[Цитировать]

Паранормальное явление 2 / Paranormal Activity 2
Страна: США
Жанр: ужасы
Год выпуска: 2010
Продолжительность: 01:24:33
Перевод: Профессиональный (дублированный)
Cубтитры: нет
Режиссер: Тод Уильямс / Tod Williams
В ролях: Кэти Фезерстон, Габриэль Джонсон
Описание: После пережитых, как им казалось, серии «взломов» своего жилища, супруги решили установить камеры слежения по всему дому. И только теперь они понимают, что события, которые разворачиваются перед ними, куда более зловещие…
Доп. информация:

Сэмпл: http://multi-up.com/362532
Качество видео: TeleSynch
Формат видео: AVI
Видео: 720x368 (1.96:1), 25 fps, XviD build 50 ~1978 kbps avg, 0.30 bit/pixel
Аудио: 48 kHz, MPEG Layer 3, 2 ch, ~320.00 kbps avg

MediaInfo

General
Complete name : E:\Видео\Paranormalnoe.javlenie.2.2010.D.TS.ELEKTRI4KA.avi
Format : AVI
Format/Info : Audio Video Interleave
File size : 1.36 GiB
Duration : 1h 24mn
Overall bit rate : 2 309 Kbps
Writing application : VirtualDubMod 1.5.10.2 (build 2540/release)
Writing library : VirtualDubMod build 2540/release
Video
ID : 0
Format : MPEG-4 Visual
Format profile : Advanced Simple@L5
Format settings, BVOP : Yes
Format settings, QPel : No
Format settings, GMC : No warppoints
Format settings, Matrix : Custom
Codec ID : XVID
Codec ID/Hint : XviD
Duration : 1h 24mn
Bit rate : 1 979 Kbps
Width : 720 pixels
Height : 368 pixels
Display aspect ratio : 1.957
Frame rate : 25.000 fps
Resolution : 8 bits
Colorimetry : 4:2:0
Scan type : Progressive
Bits/(Pixel*Frame) : 0.299
Stream size : 1.17 GiB (86%)
Writing library : XviD 1.2.1 (UTC 2008-12-04)
Audio
ID : 1
Format : MPEG Audio
Format version : Version 1
Format profile : Layer 3
Codec ID : 55
Codec ID/Hint : MP3
Duration : 1h 24mn
Bit rate mode : Constant
Bit rate : 320 Kbps
Channel(s) : 2 channels
Sampling rate : 48.0 KHz
Stream size : 194 MiB (14%)
Alignment : Aligned on interleaves
Interleave, duration : 40 ms (1.00 video frame)
Interleave, preload duration : 504 ms
Writing library : LAME3.98r
Encoding settings : -m s -V 4 -q 2 -lowpass 20.5

Скриншоты

Скачать

Скачать торрент!

Как скачивать? · Что такое торрент? · Рейтинг и ограничения

Сайт не распространяет и не хранит электронные версии произведений, а лишь предоставляет доступ к создаваемому пользователями каталогу ссылок на торрент-файлы, которые содержат только списки хеш-сумм

[Профиль] [ЛС]

Mdigitall

Стаж: 6 лет 4 месяца

Сообщений: 3

Пост Пост: #2 от 17-Ноя-2010 12:40 (спустя 16 дней)

[Цитировать]

как по мне так 2-я часть "испортила" 1-ю)
я в том смысле, что сначала все казалось как бы по настоящему))))

_________________
mDigitall
[Профиль] [ЛС]

BikerSerj

Стаж: 6 лет 3 месяца

Сообщений: 1

Пост Пост: #3 от 27-Ноя-2010 03:12 (спустя 9 дней)

[Цитировать]

фильм жуть,скачался в 23.25 решил посмотреть на ночь,лучшеб не смотрел....До середины можно ничего не ждать. Только не большая игра со сковородками, мертвой птичкой, врезавшейся в окно и игранием со светом. После середины начинается самое интересное. Таких резких моментов, которые реально пугают нет в первом фильме.,а так отлично....рекомендую.....Все явления начинаются в девятую минуту, то есть в любое число часов, в любую первую цифру минут.Самый прикол про фильтр для басейна ..Реально попугал в концовке, насыщенно, по сравнению с началом. Кому понравился первый фильм, рекомендуется и этот. Кто не смотрел, и кому не понравилась первая часть, смотреть не рекомендуется, будет не интересно.Я думаю многие остались довольны после просмотра!
[Профиль] [ЛС]

bltina

Стаж: 6 лет

Сообщений: 2

Пост Пост: #4 от 28-Ноя-2010 12:30 (спустя 1 день 9 часов)

[Цитировать]

спасибо!

_________________
anatol
[Профиль] [ЛС]

Матроскин

Стаж: 6 лет

Сообщений: 1

Пост Пост: #5 от 01-Дек-2010 17:38 (спустя 3 дня)

[Цитировать]

первая часть на много лучше!
[Профиль] [ЛС]
Показать сообщения:    
Ответить на тему

Текущее время: Сегодня 03:57

Часовой пояс: GMT + 4



Вы не можете начинать темы
Вы не можете отвечать на сообщения
Вы не можете редактировать свои сообщения
Вы не можете удалять свои сообщения
Вы не можете голосовать в опросах
Вы не можете прикреплять файлы к сообщениям
Вы не можете скачивать файлы