Шоссе смерти / Highwaymen (Роберт Хармон / Robert Harmon) [2004, США, Канада, боевик, триллер, криминал, WEB-DL 720p] 3x DVO + Sub Rus, Eng + Original Eng

Ответить на тему
 
Автор Сообщение

user ®

Стаж: 7 лет 7 месяцев

Сообщений: 20008

Пост Пост: #1 от 07-Июн-2015 21:51

[Цитировать]

Шоссе смерти / Highwaymen Страна: США, Канада
Студия: Millennium Films, Cornice Entertainment, New Line Cinema
Жанр: боевик, триллер, криминал
Год выпуска: 2004
Продолжительность: 01:20:47
Перевод 1: Профессиональный (двухголосый закадровый) [DVD5.R5 - Премьер Видео Фильм]
Перевод 2: Профессиональный (двухголосый закадровый) [НТВ+, Марина Тарасова и Александр Котов]
Перевод 3: Профессиональный (двухголосый закадровый) [~DVD5.R5 - Universal Pictures Rus~]
Cубтитры: русские, английские, SDH
Оригинальная аудиодорожка: английский
Режиссер: Роберт Хармон / Robert Harmon
В ролях: Джеймс Кэвизел, Рона Митра, Фрэнки Фэйзон, Колм Фиор, Гордон Карри, Андреа Рот, Ноам Дженкинс, Тоби Проктор, Джеймс Ки, Гайлейн Сент-Ондж, Гайлейн Сент-Ондж, Джо Пинг, Пол Рутледж, Брайан Ренфро
Описание: Ренни Крею терять нечего: после того, как извращённый садист безжалостно отнял жизнь у его жены, он бросил всё и посвятил годы поискам убийцы. Опасный психопат, который расправился с женой Крея, продолжает совершать зверские преступления: он разъезжает на своём потрепанном «Эль Дорадо» 72-го года выпуска по безлюдным ночным дорогам и убивает молодых женщин. Ренни, которому, наконец, удалось выйти на след маньяка, решает поймать его на живца, использовав для этого девушку, приглянувшуюся монстру…- -Тип релиза: WEB-DL 720p
Контейнер: MKV
Видео: MPEG-4 AVC Video, 1280x540 / 2,40:1 (16:9) / ~4142 kbps / 23,976 fps / Main@L3.1
Аудио 1: Russian: AC3, 6 ch, 384 kbps, 48 kHz | DVD5.R5 - Премьер Видео Фильм - [url=http://***/forum/viewtopic.php?t=927450]spartac[/url]
Аудио 2: Russian: AC3, 2.0 ch, 192 kbps, 48 kHz | НТВ+, Марина Тарасова и Александр Котов - [url=http://***/forum/viewtopic.php?t=3551163]max1wq[/url]
Аудио 3: Russian: AC3, 2.0 ch, 192 kbps, 48 kHz | ~Universal Pictures Rus~ (в исходной 5.0/384 во всех 5 каналах перевод, LFE пустой) - [url=http://***/forum/viewtopic.php?t=297823]Coupe de Grace[/url]
Аудио 4: English: AC3, 6 ch, 384 kbps, 48 kHz | origial
Формат субтитров: softsub (SRT)
Главы: подписаны (rus)
MediaInfo
Общее
Уникальный идентификатор : 191703498146914765325898990831197882330 (0x9038C03150BB294D838A5FFF45F607DA)
Полное имя : N:\Шоссе смерти 2004.WEB-DL.720p.3хПД.Eng.mkv
Формат : Matroska
Версия формата : Version 4 / Version 2
Размер файла : 3,05 Гбайт
Продолжительность : 1 ч. 20 м.
Общий поток : 5401 Кбит/сек
Название фильма : Highwaymen (2004)
Дата кодирования : UTC 2015-06-05 13:26:56
Программа кодирования : mkvmerge v7.8.0 ('River Man') 32bit built on Mar 27 2015 16:18:02
Библиотека кодирования : libebml v1.3.1 + libmatroska v1.4.2
Видео
Идентификатор : 1
Формат : AVC
Формат/Информация : Advanced Video Codec
Профиль формата : Main@L3.1
Параметр CABAC формата : Нет
Параметр ReFrames формата : 2 кадра
Идентификатор кодека : V_MPEG4/ISO/AVC
Продолжительность : 1 ч. 20 м.
Битрейт : 4142 Кбит/сек
Ширина : 1280 пикселей
Высота : 540 пикселей
Соотношение сторон : 2,40:1
Режим частоты кадров : Постоянный
Частота кадров : 23,976 кадра/сек
Цветовое пространство : YUV
Субдискретизация насыщенности : 4:2:0
Битовая глубина : 8 бит
Тип развёртки : Прогрессивная
Бит/(Пиксели*Кадры) : 0.250
Размер потока : 2,34 Гбайт (77%)
Язык : English
Default : Да
Forced : Нет
Основные цвета : BT.709
Характеристики трансфера : BT.709
Коэффициенты матрицы : BT.709
colour_range : Limited
Аудио #1
Идентификатор : 2
Формат : AC-3
Формат/Информация : Audio Coding 3
Расширение режима : CM (complete main)
Параметр Endianness формата : Big
Идентификатор кодека : A_AC3
Продолжительность : 1 ч. 20 м.
Вид битрейта : Постоянный
Битрейт : 384 Кбит/сек
Каналы : 6 каналов
Расположение каналов : Front: L C R, Side: L R, LFE
Частота : 48,0 КГц
Битовая глубина : 16 бит
Метод сжатия : С потерями
Размер потока : 222 Мбайт (7%)
Заголовок : AC3 6ch 384kbps - двухголосый (DVD5.R5 - Премьер Видео Фильм)
Язык : Russian
Default : Да
Forced : Нет
Аудио #2
Идентификатор : 3
Формат : AC-3
Формат/Информация : Audio Coding 3
Расширение режима : CM (complete main)
Параметр Endianness формата : Big
Идентификатор кодека : A_AC3
Продолжительность : 1 ч. 20 м.
Вид битрейта : Постоянный
Битрейт : 192 Кбит/сек
Каналы : 2 канала
Расположение каналов : Front: L R
Частота : 48,0 КГц
Битовая глубина : 16 бит
Метод сжатия : С потерями
Размер потока : 111 Мбайт (4%)
Заголовок : AC3 2.0ch 192kbps - двухголосый (НТВ+, Марина Тарасова и Александр Котов)
Язык : Russian
Default : Нет
Forced : Нет
Аудио #3
Идентификатор : 4
Формат : AC-3
Формат/Информация : Audio Coding 3
Расширение режима : CM (complete main)
Параметр Endianness формата : Big
Идентификатор кодека : A_AC3
Продолжительность : 1 ч. 20 м.
Вид битрейта : Постоянный
Битрейт : 192 Кбит/сек
Каналы : 2 канала
Расположение каналов : Front: L R
Частота : 48,0 КГц
Битовая глубина : 16 бит
Метод сжатия : С потерями
Размер потока : 111 Мбайт (4%)
Заголовок : AC3 2.0ch 192kbps - двухголосый (5.0/384)
Язык : Russian
Default : Нет
Forced : Нет
Аудио #4
Идентификатор : 5
Формат : AC-3
Формат/Информация : Audio Coding 3
Расширение режима : CM (complete main)
Параметр Endianness формата : Big
Идентификатор кодека : A_AC3
Продолжительность : 1 ч. 20 м.
Вид битрейта : Постоянный
Битрейт : 384 Кбит/сек
Каналы : 6 каналов
Расположение каналов : Front: L C R, Side: L R, LFE
Частота : 48,0 КГц
Битовая глубина : 16 бит
Метод сжатия : С потерями
Размер потока : 222 Мбайт (7%)
Заголовок : AC3 6ch 384kbps - original
Язык : English
Default : Нет
Forced : Нет
Текст #1
Идентификатор : 6
Формат : UTF-8
Идентификатор кодека : S_TEXT/UTF8
Идентификатор кодека/Информация : UTF-8 Plain Text
Язык : Russian
Default : Нет
Forced : Нет
Текст #2
Идентификатор : 7
Формат : UTF-8
Идентификатор кодека : S_TEXT/UTF8
Идентификатор кодека/Информация : UTF-8 Plain Text
Язык : English
Default : Нет
Forced : Нет
Текст #3
Идентификатор : 8
Формат : UTF-8
Идентификатор кодека : S_TEXT/UTF8
Идентификатор кодека/Информация : UTF-8 Plain Text
Заголовок : SDH
Язык : English
Default : Нет
Forced : Нет
Меню
00:00:00.000 : ru: 00:00:00 - Вступительные титры / Авария
00:03:41.451 : ru: 00:03:41 - Закопанные протезы
00:06:49.931 : ru: 00:06:49 - Авария в тоннеле
00:14:41.152 : ru: 00:14:41 - Единственная выжившая
00:18:52.153 : ru: 00:18:52 - Допрос Молли
00:21:29.602 : ru: 00:21:29 - "Я не одинок"
00:25:36.223 : ru: 00:25:36 - Новое нападение "Эльдорадо"
00:33:46.171 : ru: 00:33:46 - "Он изменил всю мою жизнь"
00:39:42.819 : ru: 00:39:42 - Дверь "Барракуды"
00:41:33.013 : ru: 00:41:33 - "Я не могу тебя отпустить"
00:46:33.230 : ru: 00:46:33 - Терепия подвергания
00:53:14.464 : ru: 00:53:14 - Заложница
00:56:16.688 : ru: 00:56:16 - История убийцы
00:59:26.878 : ru: 00:59:26 - Знаки на пути
01:01:03.058 : ru: 01:01:03 - Убежище убийцы
01:04:00.985 : ru: 01:04:00 - На месте
01:08:23.206 : ru: 01:08:23 - Страх
01:10:36.047 : ru: 01:10:36 - Новый водитель
01:13:00.650 : ru: 01:13:00 - Выбор
01:16:08.713 : ru: 01:16:08 - Заключительные титры
01:20:39.609 : ru: 01:20:39 - Конец
Скриншоты

Доп
Скачать

Скачать торрент!

Как скачивать? · Что такое торрент? · Рейтинг и ограничения

Сайт не распространяет и не хранит электронные версии произведений, а лишь предоставляет доступ к создаваемому пользователями каталогу ссылок на торрент-файлы, которые содержат только списки хеш-сумм

[Профиль] [ЛС]
Показать сообщения:    
Ответить на тему

Текущее время: Сегодня 14:34

Часовой пояс: GMT + 4



Вы не можете начинать темы
Вы не можете отвечать на сообщения
Вы не можете редактировать свои сообщения
Вы не можете удалять свои сообщения
Вы не можете голосовать в опросах
Вы не можете прикреплять файлы к сообщениям
Вы не можете скачивать файлы