Без вины виноватый / Wrongfully Accused (Пэт Профт / Pat Proft) [1998, Германия, США, комедия, боевик, WEB-DL 1080p] AVO + 2x MVO + 3x DVO + 2x VO + Sub Rus + Original Eng

Ответить на тему
 
Автор Сообщение

user ®

Стаж: 7 лет 7 месяцев

Сообщений: 20008

Пост Пост: #1 от 07-Июн-2015 21:51

[Цитировать]

Без вины виноватый / Wrongfully Accused Страна: Германия, США
Студия: Constantin Film Produktion GmbH, Morgan Creek Productions
Жанр: комедия, боевик
Год выпуска: 1998
Продолжительность: 1:25:55
Перевод 1: Авторский (одноголосый закадровый) Санаев
Перевод 2: Профессиональный (многоголосый закадровый) West Video
Перевод 3: Профессиональный (двухголосый закадровый) Союз Видео
Перевод 4: Профессиональный (двухголосый закадровый) ТНТ
Перевод 5: Профессиональный (двухголосый закадровый) Екатеринбург Арт
Перевод 6: Профессиональный (многоголосый закадровый) РТР
Перевод 7: Одноголосый закадровый - Бойков (VHS)
Перевод 8: Одноголосый закадровый - Неизвестный (VHS)
Cубтитры: русские
Оригинальная аудиодорожка: английский
Режиссер: Пэт Профт / Pat Proft
В ролях: Лесли Нильсен
Ричард Кренна
Келли ЛеБрок
Мелинда МакГроу
Майкл Йорк
Сандра Бернхард
Аарон Перл
Лесли Джонс
Бен Рэтнер
Джерард Планкет
Описание: На самом пике своей блестящей карьеры красавец — суперскрипач Райан Харрисон оказался втянутым богатой искусительницей Лорен Гудхью в одно паршивое дельце, связанное с убийством. Несмотря на то, что покушавшийся был одноруким, одноногим и одноглазым, невезучий Харрисон был арестован, признан виновным и приговорен к смертной казни.
К счастью, тюремный автобус заносит на банановой кожуре, что позволяет Харрисону сбежать. Теперь беглец, обреченный на смерть, начинает гонку, преследуемый неутомимым агентом Фергюсом Фоллзом.
Под градом пуль Харрисон спасает невиновных свидетелей, ищет настоящего убийцу, изобличает международный заговор и еще должен успеть получить из химчистки свой смокинг…
Сэмпл
Тип релиза: WEB-DL 1080p
Контейнер: MKV
Видео: AVC/H.264, 1916x1076 (16:9), 5165 Кбит/с, 23.976 fps
Аудио:
1: Russian, AC3, 48 KHz, 384 Кбит/с, 5.1 ch (AVO Санаев)
2: Russian, AC3, 48 KHz, 384 Кбит/с, 5.1 ch (MVO West Video)
3: Russian, AC3, 48 KHz, 192 Кбит/с, 2.0 ch (DVO Союз Видео)
4: Russian, AC3, 48 KHz, 192 Кбит/с, 2.0 ch (DVO ТНТ)
5: Russian, AC3, 48 KHz, 192 Кбит/с, 2.0 ch (DVO Екатеринбург Арт)
6: Russian, AC3, 48 KHz, 192 Кбит/с, 2.0 ch (MVO РТР)
7: Russian, AC3, 48 KHz, 192 Кбит/с, 2.0 ch (VO Бойков (VHS))
8: Russian, AC3, 48 KHz, 192 Кбит/с, 2.0 ch (VO Неизвестный (VHS))
9: English, AC3, 48 KHz, 384 Кбит/с, 5.1 ch
Субтитры: Russian, softsub (SRT)
MediaInfo
General
Unique ID : 232802221003906212509727770091037983400 (0xAF2413ACC714775B93743ADAAACD02A8)
Complete name : D:\Без вины виноватый (1080p HD).mkv
Format : Matroska
Format version : Version 2
File size : 4.58 GiB
Duration : 1h 26mn
Overall bit rate mode : Variable
Overall bit rate : 7 621 Kbps
Encoded date : UTC 2015-06-05 22:59:11
Writing application : mkvmerge v5.8.0 ('No Sleep / Pillow') built on Sep 2 2012 15:37:04
Writing library : libebml v1.2.3 + libmatroska v1.3.0
Video
ID : 1
Format : AVC
Format/Info : Advanced Video Codec
Format profile : Main@L4
Format settings, CABAC : Yes
Format settings, ReFrames : 2 frames
Codec ID : V_MPEG4/ISO/AVC
Duration : 1h 26mn
Bit rate mode : Variable
Bit rate : 5 165 Kbps
Maximum bit rate : 768 Kbps
Width : 1 916 pixels
Height : 1 076 pixels
Display aspect ratio : 16:9
Frame rate mode : Constant
Frame rate : 23.976 fps
Original frame rate : 25.000 fps
Color space : YUV
Chroma subsampling : 4:2:0
Bit depth : 8 bits
Scan type : Progressive
Bits/(Pixel*Frame) : 0.104
Stream size : 3.10 GiB (68%)
Default : Yes
Forced : No
Audio #1
ID : 2
Format : AC-3
Format/Info : Audio Coding 3
Mode extension : CM (complete main)
Format settings, Endianness : Big
Codec ID : A_AC3
Duration : 1h 26mn
Bit rate mode : Constant
Bit rate : 384 Kbps
Channel(s) : 6 channels
Channel positions : Front: L C R, Side: L R, LFE
Sampling rate : 48.0 KHz
Compression mode : Lossy
Stream size : 236 MiB (5%)
Title : AVO - Санаев
Language : Russian
Default : Yes
Forced : No
Audio #2
ID : 3
Format : AC-3
Format/Info : Audio Coding 3
Mode extension : CM (complete main)
Format settings, Endianness : Big
Codec ID : A_AC3
Duration : 1h 26mn
Bit rate mode : Constant
Bit rate : 384 Kbps
Channel(s) : 6 channels
Channel positions : Front: L C R, Side: L R, LFE
Sampling rate : 48.0 KHz
Compression mode : Lossy
Stream size : 236 MiB (5%)
Title : MVO - West Video
Language : Russian
Default : No
Forced : No
Audio #3
ID : 4
Format : AC-3
Format/Info : Audio Coding 3
Mode extension : CM (complete main)
Format settings, Endianness : Big
Codec ID : A_AC3
Duration : 1h 26mn
Bit rate mode : Constant
Bit rate : 192 Kbps
Channel(s) : 2 channels
Channel positions : Front: L R
Sampling rate : 48.0 KHz
Compression mode : Lossy
Stream size : 118 MiB (3%)
Title : MVO - Союз Видео
Language : Russian
Default : No
Forced : No
Audio #4
ID : 5
Format : AC-3
Format/Info : Audio Coding 3
Mode extension : CM (complete main)
Format settings, Endianness : Big
Codec ID : A_AC3
Duration : 1h 26mn
Bit rate mode : Constant
Bit rate : 192 Kbps
Channel(s) : 2 channels
Channel positions : Front: L R
Sampling rate : 48.0 KHz
Compression mode : Lossy
Stream size : 118 MiB (3%)
Title : MVO - THT
Language : Russian
Default : No
Forced : No
Audio #5
ID : 6
Format : AC-3
Format/Info : Audio Coding 3
Format profile : Dolby Digital
Mode extension : CM (complete main)
Format settings, Endianness : Big
Codec ID : A_AC3
Duration : 1h 26mn
Bit rate mode : Constant
Bit rate : 192 Kbps
Channel(s) : 2 channels
Channel positions : Front: L R
Sampling rate : 48.0 KHz
Compression mode : Lossy
Stream size : 118 MiB (3%)
Title : MVO - Екатеринбург Арт
Language : Russian
Default : No
Forced : No
Audio #6
ID : 7
Format : AC-3
Format/Info : Audio Coding 3
Mode extension : CM (complete main)
Format settings, Endianness : Big
Codec ID : A_AC3
Duration : 1h 26mn
Bit rate mode : Constant
Bit rate : 192 Kbps
Channel(s) : 2 channels
Channel positions : Front: L R
Sampling rate : 48.0 KHz
Compression mode : Lossy
Stream size : 118 MiB (3%)
Title : MVO - РТР
Language : Russian
Default : No
Forced : No
Audio #7
ID : 8
Format : AC-3
Format/Info : Audio Coding 3
Mode extension : CM (complete main)
Format settings, Endianness : Big
Codec ID : A_AC3
Duration : 1h 26mn
Bit rate mode : Constant
Bit rate : 192 Kbps
Channel(s) : 2 channels
Channel positions : Front: L R
Sampling rate : 48.0 KHz
Compression mode : Lossy
Stream size : 118 MiB (3%)
Title : AVO - Бойков (VHS)
Language : Russian
Default : No
Forced : No
Audio #8
ID : 9
Format : AC-3
Format/Info : Audio Coding 3
Mode extension : CM (complete main)
Format settings, Endianness : Big
Codec ID : A_AC3
Duration : 1h 26mn
Bit rate mode : Constant
Bit rate : 192 Kbps
Channel(s) : 2 channels
Channel positions : Front: L R
Sampling rate : 48.0 KHz
Compression mode : Lossy
Stream size : 118 MiB (3%)
Title : AVO - Неизвестный (VHS)
Language : Russian
Default : No
Forced : No
Audio #9
ID : 10
Format : AC-3
Format/Info : Audio Coding 3
Mode extension : CM (complete main)
Format settings, Endianness : Big
Codec ID : A_AC3
Duration : 1h 26mn
Bit rate mode : Constant
Bit rate : 384 Kbps
Channel(s) : 6 channels
Channel positions : Front: L C R, Side: L R, LFE
Sampling rate : 48.0 KHz
Compression mode : Lossy
Stream size : 236 MiB (5%)
Language : English
Default : No
Forced : No
Text
ID : 11
Format : UTF-8
Codec ID : S_TEXT/UTF8
Codec ID/Info : UTF-8 Plain Text
Language : Russian
Default : No
Forced : No
Скриншоты Торрент перезалит. Добавлены аудио-дорожки.
Скачать

Скачать торрент!

Как скачивать? · Что такое торрент? · Рейтинг и ограничения

Сайт не распространяет и не хранит электронные версии произведений, а лишь предоставляет доступ к создаваемому пользователями каталогу ссылок на торрент-файлы, которые содержат только списки хеш-сумм

[Профиль] [ЛС]
Показать сообщения:    
Ответить на тему

Текущее время: Сегодня 02:03

Часовой пояс: GMT + 4



Вы не можете начинать темы
Вы не можете отвечать на сообщения
Вы не можете редактировать свои сообщения
Вы не можете удалять свои сообщения
Вы не можете голосовать в опросах
Вы не можете прикреплять файлы к сообщениям
Вы не можете скачивать файлы